BitTorrentTracker PerecTracker.org
BitTorrentTracker PerecTracker.org
    
Регистрация  ·  Вход
 
 · 
Забыли пароль?

  • [iPad] Беззаботная / Happy-Go-Lucky (Майк Ли / Mike Leigh ) [2008, Великобритания, Драма, комедия, HDRip, SD (576p)] MVO + Original + sub (rus, eng, ukr)

    Ответить на тему
     
    Автор Сообщение

    rechyn

    Создавать темы 02-Сен-2015 12:53

           

    [Цитировать]

    Беззаботная / Happy-Go-Lucky
    «The one movie this fall that will put a smile on your face»
    6.737 / 10 7.00 / 10
    -Год выпуска: 2008
    Страна: Великобритания
    Жанр: Драма, комедия
    Продолжительность: 01:59:08
    Перевод: Профессиональный (многоголосый закадровый)
    Оригинальная аудиодорожка: Есть
    Cубтитры: Русские, Английские, Украинские
    Режиссёр: Майк Ли
    Сценарий: Майк Ли
    Продюсер: Саймон Ченнинг-Вильямс, Джеймс Клэйтон, Гэйл Иган
    Оператор: Дик Поуп
    Композитор: Гари Ершон
    Художник: Марк Тилдесли, Патрик Рольф, Дэнис Шнегг
    Монтаж: Джим Кларк
    В ролях: Салли Хокинс, Эллиот Кауэн, Алексис Зегерман, Андреа Райзборо, Шинед Мэтьюз, Кейт О’Флинн, Сара Нилс, Эдди Марсан, Джозеф Клоска, Сильвестра Ле Тузель
    Сборы в США: $3 512 016
    Сборы в мире: + $14 618 872 = $18 130 888
    Сборы в России: $79 116
    Мировая премьера: 12 февраля 2008
    Премьера (РФ): 13 ноября 2008, «West»
    Релиз на DVD: 31 марта 2009, «West Video»
    Описание: 30-летняя учительница Поппи ничем не отличается от простых людей — она одинока, живет на небольшую зарплату, из-за чего вынуждена снимать квартиру вместе с подругой. Однако Поппи уверена, что у нее все просто замечательно. Она идет по жизни смеясь, ни о чем не задумываясь, ничего не боясь, излучая-таки просто детскую непосредственность. Такой заряд оптимизма, наконец, и правда притягивает к ней счастье.-Качество исходника: BDRip 1080p
    Качество: HDRip
    Тип: SD (576p)
    Контейнер: M4V
    Видео: H.264, 1024x432, 2.40:1, 2 200 Kbps, 23.976 fps
    Аудио 1: Русский/Профессиональный (многоголосый закадровый) , AAC / 2.0 / 149 Kbps / 48.0 KHz
    Аудио 2: Английский/Оригинальная дорожка , AAC / 2.0 / 156 Kbps / 48.0 KHz
    Аудио 3: Украинский/Профессиональный (двухголосый закадровый) , AAC / 2.0 / 155 Kbps / 48.0 KHz
    Субтитры 1: Русские полные
    Субтитры 2: Английские полные
    Субтитры 3: Украинские полные
    -

    iTunes Meta Tags

    Sort Name: Happy-Go-Lucky
    XID: Apple:vendor_id:2008-325549
    contentID: 432513101
    Copyright: © 2011 Miramax
    Screenwriters: Майк Ли
    Producers: Саймон Ченнинг-Вильямс, Джеймс Клэйтон, Гэйл Иган
    Director: Майк Ли
    Cast: Салли Хокинс, Эллиот Кауэн, Алексис Зегерман, Андреа Райзборо, Шинед Мэтьюз, Кейт О’Флинн, Сара Нилс, Эдди Марсан, Джозеф Клоска, Сильвестра Ле Тузель
    Studio: Lionsgate
    Rating: 11
    Long Description: 30-летняя учительница Поппи ничем не отличается от простых людей - она одинока, живет на небольшую зарплату, из-за чего вынуждена снимать квартиру вместе с подругой. Однако Поппи уверена, что у нее все просто замечательно. Она идет по жизни смеясь, ни о чем не задумываясь, ничего не боясь, излучая-таки просто детскую непосредственность. Такой заряд оптимизма, наконец, и правда притягивает к ней счастье.
    Description: 30-летняя учительница Поппи ничем не отличается от простых людей - она одинока, живет на небольшую зарплату, из-за чего вынуждена снимать квартиру вместе с подругой. Однако Поппи уверена, что у нее все просто замечательно. Она идет по жизни смеясь, ни о чем не задумываясь, ничего не боясь, излучая-таки просто детскую непосредственность. Такой заряд оптимизма, наконец, и правда притягивает к ней счастье.
    Release Date: 2008-02-12T08:00:00Z
    Genre: Comedy
    Artist: Mike Leigh
    Name: Happy-Go-Lucky

    MediaInfo

    General
    Complete name                            : /Users/imac/HandBrake/Happy.Go.Lucky.(SD).(pk).m4v
    Format                                   : MPEG-4
    Codec ID                                 : M4V
    File size                                : 2.22 GiB
    Duration                                 : 1h 59mn
    Overall bit rate mode                    : Variable
    Overall bit rate                         : 2 670 Kbps
    Movie name                               : Happy-Go-Lucky
    Performer                                : Mike Leigh
    Genre                                    : Comedy
    Recorded date                            : UTC 2008-02-12 08:00:00
    Encoded date                             : UTC 2015-05-25 20:15:34
    Tagged date                              : UTC 2015-05-25 20:20:55
    Copyright                                : © 2011 Miramax
    Cover                                    : Yes
    sonm                                     : Happy-Go-Lucky
    desc                                     : 30-летняя учительница Поппи ничем не отличается от простых людей - она одинока, живет на небольшую зарплату, из-за чего вынуждена снимать квартиру вместе с подругой. Однако Поппи уверена, что у нее все просто замечательно. Она идет по жизни смеясь, ни о чем не задумываясь, ничего не боясь, излучая-таки просто детскую непосредственность. Такой заряд оптимизма, наконец, и правда притягивает к ней счастье.
    ldes                                     : 30-летняя учительница Поппи ничем не отличается от простых людей - она одинока, живет на небольшую зарплату, из-за чего вынуждена снимать квартиру вместе с подругой. Однако Поппи уверена, что у нее все просто замечательно. Она идет по жизни смеясь, ни о чем не задумываясь, ничего не боясь, излучая-таки просто детскую непосредственность. Такой заряд оптимизма, наконец, и правда притягивает к ней счастье.
    stik                                     : 9
    rtng                                     : 0
    cnID                                     : 432513101
    xid                                      : Apple:vendor_id:2008-325549
    iTunEXTC                                 : mpaa|R|400|
    iTunMOVI                                 : <?xml version=\"1.0\" encoding=\"UTF-8\"?> / <!DOCTYPE plist PUBLIC \"-//Apple//DTD PLIST 1.0//EN\" \"http://anonym.to/?http://www.apple.com/DTDs/PropertyList-1.0.dtd\"> / <plist version=\"1.0\"> / <dict> /  <key>cast</key> /  <array> /   <dict> /    <key>name</key> /    <string>Салли Хокинс</string> /   </dict> /   <dict> /    <key>name</key> /    <string>Эллиот Кауэн</string> /   </dict> /   <dict> /    <key>name</key> /    <string>Алексис Зегерман</string> /   </dict> /   <dict> /    <key>name</key> /    <string>Андреа Райзборо</string> /   </dict> /   <dict> /    <key>name</key> /    <string>Шинед Мэтьюз</string> /   </dict> /   <dict> /    <key>name</key> /    <string>Кейт О’Флинн</string> /   </dict> /   <dict> /    <key>name</key> /    <string>Сара Нилс</string> /   </dict> /   <dict> /    <key>name</key> /    <string>Эдди Марсан</string> /   </dict> /   <dict> /    <key>name</key> /    <string>Джозеф Клоска</string> /   </dict> /   <dict> /    <key>name</key> /    <string>Сильвестра Ле Тузель</string> /   </dict> /  </array> /  <key>directors</key> /  <array> /   <dict> /    <key>name</key> /    <string>Майк Ли</string> /   </dict> /  </array> /  <key>producers</key> /  <array> /   <dict> /    <key>name</key> /    <string>Саймон Ченнинг-Вильямс</string> /   </dict> /   <dict> /    <key>name</key> /    <string>Джеймс Клэйтон</string> /   </dict> /   <dict> /    <key>name</key> /    <string>Гэйл Иган</string> /   </dict> /  </array> /  <key>screenwriters</key> /  <array> /   <dict> /    <key>name</key> /    <string>Майк Ли</string> /   </dict> /  </array> /  <key>studio</key> /  <string>Lionsgate</string> / </dict> / </plist>
    Video #1
    ID                                       : 1
    Format                                   : AVC
    Format/Info                              : Advanced Video Codec
    Format profile                           : High@L3.1
    Format settings, CABAC                   : Yes
    Format settings, ReFrames                : 9 frames
    Codec ID                                 : avc1
    Codec ID/Info                            : Advanced Video Coding
    Duration                                 : 1h 59mn
    Bit rate mode                            : Variable
    Bit rate                                 : 2 200 Kbps
    Width                                    : 1 024 pixels
    Height                                   : 432 pixels
    Display aspect ratio                     : 2.40:1
    Frame rate mode                          : Variable
    Frame rate                               : 23.976 fps
    Minimum frame rate                       : 23.810 fps
    Maximum frame rate                       : 24.390 fps
    Color space                              : YUV
    Chroma subsampling                       : 4:2:0
    Bit depth                                : 8 bits
    Scan type                                : Progressive
    Bits/(Pixel*Frame)                       : 0.207
    Stream size                              : 1.83 GiB (82%)
    Writing library                          : x264 core 142 r2479 dd79a61
    Encoding settings                        : cabac=1 / ref=9 / deblock=1:0:0 / analyse=0x3:0x113 / me=umh / subme=9 / psy=1 / psy_rd=1.00:0.00 / mixed_ref=1 / me_range=32 / chroma_me=1 / trellis=1 / 8x8dct=1 / cqm=0 / deadzone=21,11 / fast_pskip=1 / chroma_qp_offset=-2 / threads=36 / lookahead_threads=3 / sliced_threads=0 / nr=0 / decimate=1 / interlaced=0 / bluray_compat=0 / constrained_intra=0 / bframes=6 / b_pyramid=2 / b_adapt=2 / b_bias=0 / direct=1 / weightb=1 / open_gop=0 / weightp=2 / keyint=240 / keyint_min=24 / scenecut=40 / intra_refresh=0 / rc_lookahead=40 / rc=2pass / mbtree=1 / bitrate=2200 / ratetol=1.0 / qcomp=0.60 / qpmin=0 / qpmax=69 / qpstep=4 / cplxblur=20.0 / qblur=0.5 / ip_ratio=1.40 / aq=1:1.00
    Language                                 : English
    Encoded date                             : UTC 2015-05-25 20:15:34
    Tagged date                              : UTC 2015-05-25 20:15:39
    Color primaries                          : BT.709-5, BT.1361, IEC 61966-2-4, SMPTE RP177
    Transfer characteristics                 : BT.709-5, BT.1361
    Matrix coefficients                      : BT.709-5, BT.1361, IEC 61966-2-4 709, SMPTE RP177
    Video #2
    ID                                       : 9
    Format                                   : JPEG
    Codec ID                                 : jpeg
    Duration                                 : 1h 59mn
    Bit rate mode                            : Variable
    Bit rate                                 : 1 208 bps
    Width                                    : 640 pixels
    Height                                   : 270 pixels
    Display aspect ratio                     : 2.40:1
    Frame rate mode                          : Variable
    Frame rate                               : 0.003 fps
    Minimum frame rate                       : 0.002 fps
    Maximum frame rate                       : 0.008 fps
    Color space                              : YUV
    Chroma subsampling                       : 4:2:0
    Bit depth                                : 8 bits
    Compression mode                         : Lossy
    Bits/(Pixel*Frame)                       : 2.330
    Stream size                              : 1.06 MiB (0%)
    Language                                 : English
    Encoded date                             : UTC 2015-05-25 20:15:47
    Tagged date                              : UTC 2015-05-25 20:15:48
    Audio #1
    ID                                       : 2
    Format                                   : AAC
    Format/Info                              : Advanced Audio Codec
    Format profile                           : LC
    Codec ID                                 : 40
    Duration                                 : 1h 59mn
    Bit rate mode                            : Variable
    Bit rate                                 : 149 Kbps
    Maximum bit rate                         : 222 Kbps
    Channel(s)                               : 2 channels
    Channel positions                        : Front: L R
    Sampling rate                            : 48.0 KHz
    Compression mode                         : Lossy
    Stream size                              : 127 MiB (6%)
    Language                                 : Russian
    Encoded date                             : UTC 2015-05-25 20:15:34
    Tagged date                              : UTC 2015-05-25 20:15:42
    Audio #2
    ID                                       : 3
    Format                                   : AAC
    Format/Info                              : Advanced Audio Codec
    Format profile                           : LC
    Codec ID                                 : 40
    Duration                                 : 1h 59mn
    Bit rate mode                            : Variable
    Bit rate                                 : 156 Kbps
    Maximum bit rate                         : 242 Kbps
    Channel(s)                               : 2 channels
    Channel positions                        : Front: L R
    Sampling rate                            : 48.0 KHz
    Compression mode                         : Lossy
    Stream size                              : 133 MiB (6%)
    Language                                 : English
    Encoded date                             : UTC 2015-05-25 20:15:34
    Tagged date                              : UTC 2015-05-25 20:15:42
    Audio #3
    ID                                       : 4
    Format                                   : AAC
    Format/Info                              : Advanced Audio Codec
    Format profile                           : LC
    Codec ID                                 : 40
    Duration                                 : 1h 59mn
    Bit rate mode                            : Variable
    Bit rate                                 : 155 Kbps
    Maximum bit rate                         : 245 Kbps
    Channel(s)                               : 2 channels
    Channel positions                        : Front: L R
    Sampling rate                            : 48.0 KHz
    Compression mode                         : Lossy
    Stream size                              : 132 MiB (6%)
    Language                                 : Ukrainian
    Encoded date                             : UTC 2015-05-25 20:15:34
    Tagged date                              : UTC 2015-05-25 20:15:42
    Text #1
    ID                                       : 5
    Format                                   : Timed text
    Muxing mode                              : sbtl
    Codec ID                                 : tx3g
    Duration                                 : 1h 54mn
    Bit rate mode                            : Variable
    Bit rate                                 : 143 bps
    Stream size                              : 120 KiB (0%)
    Language                                 : Russian
    Encoded date                             : UTC 2015-05-25 20:15:34
    Tagged date                              : UTC 2015-05-25 20:15:34
    Text #2
    ID                                       : 6
    Format                                   : Timed text
    Muxing mode                              : sbtl
    Codec ID                                 : tx3g
    Duration                                 : 1h 54mn
    Bit rate mode                            : Variable
    Bit rate                                 : 80 bps
    Stream size                              : 66.8 KiB (0%)
    Language                                 : English
    Encoded date                             : UTC 2015-05-25 20:15:34
    Tagged date                              : UTC 2015-05-25 20:15:34
    Text #3
    ID                                       : 7
    Format                                   : Timed text
    Muxing mode                              : sbtl
    Codec ID                                 : tx3g
    Duration                                 : 1h 54mn
    Bit rate mode                            : Variable
    Bit rate                                 : 96 bps
    Stream size                              : 80.9 KiB (0%)
    Language                                 : Ukrainian
    Encoded date                             : UTC 2015-05-25 20:15:34
    Tagged date                              : UTC 2015-05-25 20:15:34
    Text #4
    ID                                       : 8
    Format                                   : Apple text
    Codec ID                                 : text
    Duration                                 : 1h 59mn
    Bit rate mode                            : Constant
    Bit rate                                 : 1 bps
    Stream size                              : 572 Bytes (0%)
    Language                                 : English
    Encoded date                             : UTC 2015-05-25 20:15:42
    Tagged date                              : UTC 2015-05-25 20:15:42
    Menu
    00:00:00.000                             : 00:00:00.000
    00:06:51.620                             : 00:06:51.536
    00:13:14.670                             : 00:13:14.585
    00:15:55.789                             : 00:15:55.705
    00:21:18.154                             : 00:21:18.068
    00:23:29.952                             : 00:23:29.783
    00:30:33.543                             : 00:30:33.457
    00:34:51.926                             : 00:34:51.840
    00:40:04.823                             : 00:40:04.736
    00:45:38.990                             : 00:45:38.903
    00:48:43.925                             : 00:48:43.838
    00:51:31.051                             : 00:51:30.963
    00:55:40.300                             : 00:55:40.212
    01:05:28.472                             : 01:05:28.383
    01:10:14.216                             : 01:10:14.127
    01:19:02.578                             : 01:19:02.488
    01:28:14.672                             : 01:28:14.581
    01:32:05.320                             : 01:32:05.228
    01:40:10.430                             : 01:40:10.338
    01:47:28.118                             : 01:47:28.025
    01:52:05.437                             : 01:52:05.302
    01:54:55.232                             : 01:54:55.079

    x264 лог

    x264 [info]: frame I:1235  Avg QP:15.77  size: 83987
    x264 [info]: frame P:40516 Avg QP:19.11  size: 26460
    x264 [info]: frame B:129647 Avg QP:21.90  size:  6092
    x264 [info]: consecutive B-frames:  2.3%  3.4%  9.4% 30.1% 20.9% 27.7%  6.3%
    x264 [info]: mb I  I16..4:  9.6% 62.3% 28.1%
    x264 [info]: mb P  I16..4:  0.8%  7.6%  2.6%  P16..4: 35.6% 26.8% 18.6%  0.0%  0.0%    skip: 7.9%
    x264 [info]: mb B  I16..4:  0.1%  0.8%  0.3%  B16..8: 40.9% 10.2%  3.4%  direct: 3.5%  skip:40.9%  L0:42.3% L1:46.6% BI:11.1%
    x264 [info]: 8x8 transform intra:67.5% inter:63.8%
    x264 [info]: coded y,uvDC,uvAC intra: 90.9% 80.2% 45.8% inter: 26.2% 22.0% 2.5%
    x264 [info]: i16 v,h,dc,p: 31% 22%  8% 40%
    x264 [info]: i8 v,h,dc,ddl,ddr,vr,hd,vl,hu:  9% 11%  4% 10% 14% 14% 14% 12% 12%
    x264 [info]: i4 v,h,dc,ddl,ddr,vr,hd,vl,hu: 10% 13%  2%  8% 14% 14% 14% 11% 14%
    x264 [info]: i8c dc,h,v,p: 35% 27% 21% 17%
    x264 [info]: Weighted P-Frames: Y:1.4% UV:0.7%
    x264 [info]: ref P L0: 49.4% 12.7% 15.6%  6.1%  5.0%  3.6%  3.3%  1.9%  2.0%  0.3%  0.0%
    x264 [info]: ref B L0: 74.7% 11.1%  5.9%  2.9%  2.2%  1.8%  1.0%  0.4%
    x264 [info]: ref B L1: 91.8%  8.2%
    x264 [info]: kb/s:2199.63

    Скриншоты

    -

    Релиз подготовлен для просмотра на Apple TV, iPad, iPhone, iPod Touch.
    Для просмотра данного релиза на компьютере с ОС Windows рекомендуется использовать VLC media player
    Скачать .torrent

    Скачать торрент-файл бесплатно и на максимальной скорости!

    Как скачивать? · Что такое торрент? · Рейтинг и ограничения

    !ВНИМАНИЕ!
    Сайт не распространяет и не хранит электронные версии произведений, а занимается лишь лишь предоставлением доступа к создаваемому пользователями каталогу ссылок на торрент-файлы, которые содержат только списки хеш-сумм, убедительная просьба с жалобами обращаться напрямую к пользователю. Файлы для обмена на трекере предоставлены пользователями сайта, и администрация не несёт ответственности за их содержание. Просьба не заливать файлы, защищенные авторскими правами, а также файлы нелегального содержания!


    _________________
    [Профиль] [ЛС]
    Показать сообщения:    
    Ответить на тему

    Текущее время: Сегодня, в 01:52

    Часовой пояс: GMT + 2



    Вы не можете начинать темы
    Вы не можете отвечать на сообщения
    Вы не можете редактировать свои сообщения
    Вы не можете удалять свои сообщения
    Вы не можете голосовать в опросах
    Вы не можете прикреплять файлы к сообщениям
    Вы не можете скачивать файлы