BitTorrentTracker PerecTracker.org
BitTorrentTracker PerecTracker.org
    
Регистрация  ·  Вход
 
 · 
Забыли пароль?

  • Собор Парижской Богоматери / Нотр-Дам де Пари / Notre-Dame de Paris (Жиль Амаду / Gilles Amado) [1999, мюзикл, драма, мелодрама, DVDRip, 480p] Dub, Original

    Ответить на тему
     
    Автор Сообщение

    rechyn

    Создавать темы 02-Сен-2015 12:53

           

    [Цитировать]

    Собор Парижской Богоматери / Нотр-Дам де Пари / Notre-Dame de Paris

    Год выпуска: 1999
    Страна: Франция
    Жанр: мюзикл, драма, мелодрама
    Продолжительность: 02:14:21
    Режиссёр: Жиль Амаду
    Сценарий: Люк Пламондон, Виктор Гюго
    В ролях: Гару, Элен Сегара, Даниэль Лавуа, Брюно Пельтье, Патрик Фиори, Жюли Зенатти, Люк Мервиль
    Описание:
    Юная девушка-цыганка по имени Эсмеральда своей красотой привлекает к себе внимание мужчин. Среди них - архидъякон Собора Парижской Богоматери Фролло, молодой красавец - капитан королевских стрелков Феб и уродливый звонарь Квазимодо, воспитанник Фролло. Эсмеральда без памяти влюбляется в самого красивого из них - Феба. Он не против воспользоваться этим, несмотря на то, что у него есть невеста - Флер-де-Лис...
    Исходник: DVD9
    Контейнер: m4v
    Видео: H.264, 628x480, 1800 kbps, 25 fps
    Аудио: AAC, 2 ch, 48kHz, 160 kbps
    Дорожка 1: RUS – Дублированный
    Дорожка 2: FRA – Оригинал
    Дорожка 3: FRA – Музыка
    Главы: прописаны

    iTunes Meta Tags

    Name: Notre-Dame de Paris / Собор Парижской Богоматери
    Artist: Gilles Amado
    Release Date: 1999-09-18T08:00:00Z
    Description: Юная девушка-цыганка по имени Эсмеральда своей красотой привлекает к себе внимание мужчин. Среди них - архидъякон Собора Парижской Богоматери Фролло, молодой красавец - капитан королевских стрелков Феб и уродливый звонарь Квазимодо, воспитанник Фролло.
    Long Description: Юная девушка-цыганка по имени Эсмеральда своей красотой привлекает к себе внимание мужчин. Среди них - архидъякон Собора Парижской Богоматери Фролло, молодой красавец - капитан королевских стрелков Феб и уродливый звонарь Квазимодо, воспитанник Фролло. Эсмеральда без памяти влюбляется в самого красивого из них - Феба. Он не против воспользоваться этим, несмотря на то, что у него есть невеста - Флер-де-Лис...
    Cast: Гару, Элен Сегара, Даниэль Лавуа, Брюно Пельтье, Патрик Фиори, Жюли Зенатти, Люк Мервиль
    Director: Жиль Амаду
    Screenwriters: Люк Пламондон, Виктор Гюго
    contentID: 367456
    XID: Apple:vendor_id:1999-367456

    x264 log

    x264 [info]: frame I:2750 Avg QP:16.91 size: 31008
    x264 [info]: frame P:198776 Avg QP:19.12 size: 8693
    x264 [info]: mb I I16..4: 30.6% 0.0% 69.4%
    x264 [info]: mb P I16..4: 7.1% 0.0% 3.1% P16..4: 45.2% 15.9% 3.9% 0.0% 0.0% skip:24.8%
    x264 [info]: coded y,uvDC,uvAC intra: 41.7% 62.6% 20.3% inter: 28.2% 38.8% 2.5%
    x264 [info]: i16 v,h,dc,p: 44% 21% 22% 13%
    x264 [info]: i4 v,h,dc,ddl,ddr,vr,hd,vl,hu: 19% 20% 23% 5% 8% 7% 7% 6% 5%
    x264 [info]: i8c dc,h,v,p: 48% 18% 25% 8%
    x264 [info]: ref P L0: 76.3% 14.6% 9.1%
    x264 [info]: kb/s:1799.47

    MediaInfo

    General
    Format : MPEG-4
    Format profile : Base Media / Version 2
    Codec ID : mp42
    File size : 2.15 GiB
    Duration : 2h 14mn
    Overall bit rate mode : Variable
    Overall bit rate : 2 294 Kbps
    Movie name : Notre-Dame de Paris / Собор Парижской Богоматери
    Performer : Gilles Amado
    Composer : Riccardo Cocciante
    Director : Жиль Амаду
    Actor : Гару / Элен Сегара / Даниэль Лавуа / Брюно Пельтье / Патрик Фиори / Жюли Зенатти / Люк Мервиль
    Screenplay by : Люк Пламондон / Виктор Гюго
    Genre : драма, история, музыка, мелодрама
    ContentType : Short Film
    Description : Юная девушка-цыганка по имени Эсмеральда своей красотой привлекает к себе внимание мужчин. Среди них - архидъякон Собора Парижской Богоматери Фролло, молодой красавец - капитан королевских стрелков Феб и уродливый звонарь Квазимодо, воспитанник Фролло
    Recorded date : 1999-09-18
    Encoded date : UTC 1904-01-01 00:00:00
    Tagged date : UTC 2015-05-28 09:31:20
    Cover : Yes
    Rating : None
    LongDescription : Юная девушка-цыганка по имени Эсмеральда своей красотой привлекает к себе внимание мужчин. Среди них - архидъякон Собора Парижской Богоматери Фролло, молодой красавец - капитан королевских стрелков Феб и уродливый звонарь Квазимодо, воспитанник Фролло. Эсмеральда без памяти влюбляется в самого красивого из них - Феба. Он не против воспользоваться этим, несмотря на то, что у него есть невеста - Флер-де-Лис...
    AppleStoreCatalogID : 367456
    Vendor : Apple:vendor_id:1999-367456
    Video #1
    ID : 1
    Format : AVC
    Format/Info : Advanced Video Codec
    Format profile : Baseline@L3.0
    Format settings, CABAC : No
    Format settings, ReFrames : 3 frames
    Codec ID : avc1
    Codec ID/Info : Advanced Video Coding
    Duration : 2h 14mn
    Bit rate : 1 800 Kbps
    Width : 628 pixels
    Height : 480 pixels
    Display aspect ratio : 4:3
    Frame rate mode : Constant
    Frame rate : 25.000 fps
    Color space : YUV
    Chroma subsampling : 4:2:0
    Bit depth : 8 bits
    Scan type : Progressive
    Bits/(Pixel*Frame) : 0.239
    Stream size : 1.69 GiB (78%)
    Writing library : x264 core 142 r2479 dd79a61
    Encoding settings : cabac=0 / ref=3 / deblock=1:-1:-1 / analyse=0x1:0x111 / me=umh / subme=9 / psy=1 / psy_rd=0.00:0.00 / mixed_ref=1 / me_range=32 / chroma_me=1 / trellis=1 / 8x8dct=0 / cqm=0 / deadzone=21,11 / fast_pskip=1 / chroma_qp_offset=0 / threads=3 / lookahead_threads=1 / sliced_threads=0 / nr=0 / decimate=1 / interlaced=0 / bluray_compat=0 / constrained_intra=0 / bframes=0 / weightp=0 / keyint=250 / keyint_min=25 / scenecut=40 / intra_refresh=0 / rc_lookahead=40 / rc=2pass / mbtree=1 / bitrate=1800 / ratetol=1.0 / qcomp=0.60 / qpmin=0 / qpmax=69 / qpstep=4 / cplxblur=20.0 / qblur=0.5 / vbv_maxrate=5000 / vbv_bufsize=5000 / nal_hrd=none / filler=0 / ip_ratio=1.40 / aq=1:1.00
    Language : French
    Encoded date : UTC 1904-01-01 00:00:00
    Tagged date : UTC 1904-01-01 00:00:00
    Color primaries : BT.601 PAL
    Transfer characteristics : BT.709
    Matrix coefficients : BT.601
    Color range : Limited
    Video #2
    ID : 6
    Format : JPEG
    Codec ID : jpeg
    Duration : 2h 14mn
    Bit rate mode : Variable
    Bit rate : 2 031 bps
    Width : 628 pixels
    Height : 480 pixels
    Display aspect ratio : 4:3
    Frame rate mode : Variable
    Frame rate : 0.006 fps
    Minimum frame rate : 0.003 fps
    Maximum frame rate : 0.033 fps
    Color space : YUV
    Chroma subsampling : 4:2:0
    Bit depth : 8 bits
    Compression mode : Lossy
    Bits/(Pixel*Frame) : 1.123
    Stream size : 2.10 MiB (0%)
    Language : French
    Encoded date : UTC 2015-05-28 09:23:56
    Tagged date : UTC 2015-05-28 09:23:57
    Audio #1
    ID : 2
    Format : AAC
    Format/Info : Advanced Audio Codec
    Format profile : LC
    Codec ID : 40
    Duration : 2h 14mn
    Bit rate mode : Constant
    Bit rate : 160 Kbps
    Channel(s) : 2 channels
    Channel positions : Front: L R
    Sampling rate : 48.0 KHz
    Compression mode : Lossy
    Stream size : 154 MiB (7%)
    Title : Stereo / Dub
    Language : Russian
    Encoded date : UTC 1904-01-01 00:00:00
    Tagged date : UTC 1904-01-01 00:00:00
    Audio #2
    ID : 3
    Format : AAC
    Format/Info : Advanced Audio Codec
    Format profile : LC
    Codec ID : 40
    Duration : 2h 14mn
    Bit rate mode : Variable
    Bit rate : 160 Kbps
    Maximum bit rate : 184 Kbps
    Channel(s) : 2 channels
    Channel positions : Front: L R
    Sampling rate : 48.0 KHz
    Compression mode : Lossy
    Stream size : 154 MiB (7%)
    Title : Stereo / Original
    Language : French
    Encoded date : UTC 1904-01-01 00:00:00
    Tagged date : UTC 1904-01-01 00:00:00
    Audio #3
    ID : 4
    Format : AAC
    Format/Info : Advanced Audio Codec
    Format profile : LC
    Codec ID : 40
    Duration : 2h 14mn
    Bit rate mode : Variable
    Bit rate : 160 Kbps
    Maximum bit rate : 184 Kbps
    Channel(s) : 2 channels
    Channel positions : Front: L R
    Sampling rate : 48.0 KHz
    Compression mode : Lossy
    Stream size : 154 MiB (7%)
    Title : Stereo / Instrumental
    Language : French
    Encoded date : UTC 1904-01-01 00:00:00
    Tagged date : UTC 1904-01-01 00:00:00
    Menu
    ID : 5
    Codec ID : text
    Duration : 2h 14mn
    Language : French
    Encoded date : UTC 1904-01-01 00:00:00
    Tagged date : UTC 1904-01-01 00:00:00
    00:00:00.000 : Chapter 1
    00:01:08.160 : Chapter 2
    00:04:28.400 : Chapter 3
    00:08:07.280 : Chapter 4
    00:09:00.800 : Chapter 5
    00:13:58.800 : Chapter 6
    00:15:44.880 : Chapter 7
    00:17:46.560 : Chapter 8
    00:21:37.920 : Chapter 9
    00:24:31.600 : Chapter 10
    00:25:48.560 : Chapter 11
    00:27:32.080 : Chapter 12
    00:29:30.080 : Chapter 13
    00:31:19.840 : Chapter 14
    00:36:32.880 : Chapter 15
    00:37:33.200 : Chapter 16
    00:39:34.880 : Chapter 17
    00:42:48.320 : Chapter 18
    00:43:32.000 : Chapter 19
    00:45:32.640 : Chapter 20
    00:50:25.920 : Chapter 21
    00:53:33.120 : Chapter 22
    00:57:07.920 : Chapter 23
    00:57:38.000 : Chapter 24
    01:00:27.040 : Chapter 25
    01:01:57.520 : Chapter 26
    01:05:02.080 : Chapter 27
    01:07:13.680 : Chapter 28
    01:08:30.080 : Chapter 29
    01:13:24.400 : Chapter 30
    01:18:08.320 : Chapter 31
    01:20:57.360 : Chapter 32
    01:24:06.080 : Chapter 33
    01:27:00.320 : Chapter 34
    01:28:30.800 : Chapter 35
    01:29:39.440 : Chapter 36
    01:31:18.240 : Chapter 37
    01:34:48.320 : Chapter 38
    01:37:06.080 : Chapter 39
    01:38:46.960 : Chapter 40
    01:40:00.320 : Chapter 41
    01:42:37.360 : Chapter 42
    01:45:08.160 : Chapter 43
    01:48:21.040 : Chapter 44
    01:49:00.560 : Chapter 45
    01:52:42.080 : Chapter 46
    01:56:30.880 : Chapter 47
    02:00:59.200 : Chapter 48
    02:02:13.600 : Chapter 49
    02:04:17.840 : Chapter 50
    02:04:50.080 : Chapter 51
    02:09:22.080 : Chapter 52
    Bit rate mode : VBR

    Скриншоты


    _________________
    [Профиль] [ЛС]
    Показать сообщения:    
    Ответить на тему

    Текущее время: Сегодня, в 14:59

    Часовой пояс: GMT + 2



    Вы не можете начинать темы
    Вы не можете отвечать на сообщения
    Вы не можете редактировать свои сообщения
    Вы не можете удалять свои сообщения
    Вы не можете голосовать в опросах
    Вы не можете прикреплять файлы к сообщениям
    Вы не можете скачивать файлы