BitTorrentTracker PerecTracker.org
BitTorrentTracker PerecTracker.org
    
Регистрация  ·  Вход
 
 · 
Забыли пароль?

  • [iPad] Поклонник / The Boy Next Door (Роб Коэн / Rob Cohen ) [2015, США, Триллер, BDRip, SD (576p)] DUB + Original + sub (rus, eng, ukr)

    Ответить на тему
     
    Автор Сообщение

    rechyn

    Создавать темы 02-Сен-2015 12:53

           

    [Цитировать]

    Поклонник / The Boy Next Door
    «A moment she couldn't resist, an obsession he can't control»
    5.255 / 10 4.50 / 10
    -Год выпуска: 2015
    Страна: США
    Жанр: Триллер
    Продолжительность: 01:30:33
    Перевод: Дублированный (Blu-ray CEE)
    Оригинальная аудиодорожка: Есть
    Cубтитры: Русские форсированные, Русские, Английские, Украинские
    Режиссёр: Роб Коэн
    Сценарий: Барбара Керри
    Продюсер: Джейсон Блум, Элейн Голдсмит-Томас, Джон Джейкобс
    Оператор: Дэвид МакФарланд
    Композитор: Нэтан Барр, Рэнди Эдельман
    Художник: Чарльз Варга, Кортни Хоффман, Лиза Сон
    Монтаж: Мишель Аллер
    В ролях: Дженнифер Лопез, Райан Гузман, Йен Нельсон, Джон Корбетт, Кристин Ченоуэт, Лекси Аткинс, Хилл Харпер, Джек Уоллес, Адам Хикс, Франсуа Чау
    Бюджет: $4 000 000
    Сборы в США: $35 423 380
    Сборы в мире: + $14 739 723 = $50 163 103
    Сборы в России: $568 058
    Мировая премьера: 22 января 2015
    Премьера (РФ): 26 марта 2015, «UPI»
    Релиз на DVD: 28 мая 2015, «Двадцатый Век Фокс СНГ»
    Релиз на Blu-Ray: 28 мая 2015, «Двадцатый Век Фокс СНГ»
    Описание: Фильм рассказывает об учительнице литературы Клэр Петерсон. Клэр знает о том, что муж изменяет ей, но тянет с разводом.
    Однажды, в дом по соседству въезжает харизматичный 19-летний красавчик Ной, который начинает оказывать Клэр повышенное внимание. Поддавшись слабости, Клэр проводит с ним ночь. Но она и не подозревала, что в скором времени влечение Ноя к ней перерастет в опасную одержимость…-Качество исходника: BDRemux
    Качество: BDRip
    Тип: SD (576p)
    Контейнер: M4V
    Видео: H.264, 1024x432, 2.40:1, 2 200 Kbps, 23.976 fps
    Аудио 1: Русский/Дублированный (Blu-ray CEE), AAC / 2.0 / 157 Kbps / 48.0 KHz
    Аудио 2: Английский/Оригинальная дорожка , AAC / 2.0 / 156 Kbps / 48.0 KHz
    Субтитры 1: Русские форсированные
    Субтитры 2: Русские полные
    Субтитры 3: Английские полные
    Субтитры 4: Украинские полные
    -

    iTunes Meta Tags

    Sort Name: Boy Next Door
    XID: Apple:vendor_id:2015-797575
    contentID: 956626017
    Copyright: © 2014 Universal Studios. All Rights Reserved.
    Screenwriters: Барбара Керри
    Producers: Джейсон Блум, Элейн Голдсмит-Томас, Джон Джейкобс
    Director: Роб Коэн
    Cast: Дженнифер Лопез, Райан Гузман, Йен Нельсон, Джон Корбетт, Кристин Ченоуэт, Лекси Аткинс, Хилл Харпер, Джек Уоллес, Адам Хикс, Франсуа Чау, Даниил Эльдаров, Владимир Антипов
    Studio: Universal Pictures
    Rating: 11
    Long Description: Отношения разведенной женщины и ее соседа-подростка заходят слишком далеко...
    Description: Отношения разведенной женщины и ее соседа-подростка заходят слишком далеко...
    Release Date: 2015-01-22T08:00:00Z
    Genre: Thriller
    Artist: Rob Cohen
    Name: The Boy Next Door (2015)

    MediaInfo

    General
    Complete name                            : /Users/imac/HandBrake/Poklonnik.(SD).(pk).m4v
    Format                                   : MPEG-4
    Codec ID                                 : M4V
    File size                                : 1.59 GiB
    Duration                                 : 1h 30mn
    Overall bit rate mode                    : Variable
    Overall bit rate                         : 2 520 Kbps
    Movie name                               : The Boy Next Door (2015)
    Performer                                : Rob Cohen
    Genre                                    : Thriller
    Recorded date                            : UTC 2015-01-22 08:00:00
    Encoded date                             : UTC 2015-05-29 10:01:53
    Tagged date                              : UTC 2015-05-29 10:02:40
    Copyright                                : © 2014 Universal Studios. All Rights Reserved.
    Cover                                    : Yes
    sonm                                     : Boy Next Door
    desc                                     : Отношения разведенной женщины и ее соседа-подростка заходят слишком далеко...
    ldes                                     : Отношения разведенной женщины и ее соседа-подростка заходят слишком далеко...
    stik                                     : 9
    rtng                                     : 0
    cnID                                     : 956626017
    xid                                      : Apple:vendor_id:2015-797575
    iTunEXTC                                 : mpaa|R|400|
    iTunMOVI                                 : <?xml version=\"1.0\" encoding=\"UTF-8\"?> / <!DOCTYPE plist PUBLIC \"-//Apple//DTD PLIST 1.0//EN\" \"http://anonym.to/?http://www.apple.com/DTDs/PropertyList-1.0.dtd\"> / <plist version=\"1.0\"> / <dict> /  <key>cast</key> /  <array> /   <dict> /    <key>name</key> /    <string>Дженнифер Лопез</string> /   </dict> /   <dict> /    <key>name</key> /    <string>Райан Гузман</string> /   </dict> /   <dict> /    <key>name</key> /    <string>Йен Нельсон</string> /   </dict> /   <dict> /    <key>name</key> /    <string>Джон Корбетт</string> /   </dict> /   <dict> /    <key>name</key> /    <string>Кристин Ченоуэт</string> /   </dict> /   <dict> /    <key>name</key> /    <string>Лекси Аткинс</string> /   </dict> /   <dict> /    <key>name</key> /    <string>Хилл Харпер</string> /   </dict> /   <dict> /    <key>name</key> /    <string>Джек Уоллес</string> /   </dict> /   <dict> /    <key>name</key> /    <string>Адам Хикс</string> /   </dict> /   <dict> /    <key>name</key> /    <string>Франсуа Чау</string> /   </dict> /   <dict> /    <key>name</key> /    <string>Даниил Эльдаров</string> /   </dict> /   <dict> /    <key>name</key> /    <string>Владимир Антипов</string> /   </dict> /  </array> /  <key>directors</key> /  <array> /   <dict> /    <key>name</key> /    <string>Роб Коэн</string> /   </dict> /  </array> /  <key>producers</key> /  <array> /   <dict> /    <key>name</key> /    <string>Джейсон Блум</string> /   </dict> /   <dict> /    <key>name</key> /    <string>Элейн Голдсмит-Томас</string> /   </dict> /   <dict> /    <key>name</key> /    <string>Джон Джейкобс</string> /   </dict> /  </array> /  <key>screenwriters</key> /  <array> /   <dict> /    <key>name</key> /    <string>Барбара Керри</string> /   </dict> /  </array> /  <key>studio</key> /  <string>Universal Pictures</string> / </dict> / </plist>
    Video #1
    ID                                       : 1
    Format                                   : AVC
    Format/Info                              : Advanced Video Codec
    Format profile                           : High@L3.1
    Format settings, CABAC                   : Yes
    Format settings, ReFrames                : 9 frames
    Codec ID                                 : avc1
    Codec ID/Info                            : Advanced Video Coding
    Duration                                 : 1h 30mn
    Bit rate mode                            : Variable
    Bit rate                                 : 2 200 Kbps
    Width                                    : 1 024 pixels
    Height                                   : 432 pixels
    Display aspect ratio                     : 2.40:1
    Frame rate mode                          : Variable
    Frame rate                               : 23.976 fps
    Minimum frame rate                       : 23.810 fps
    Maximum frame rate                       : 24.246 fps
    Color space                              : YUV
    Chroma subsampling                       : 4:2:0
    Bit depth                                : 8 bits
    Scan type                                : Progressive
    Bits/(Pixel*Frame)                       : 0.207
    Stream size                              : 1.39 GiB (87%)
    Writing library                          : x264 core 142 r2479 dd79a61
    Encoding settings                        : cabac=1 / ref=9 / deblock=1:0:0 / analyse=0x3:0x113 / me=umh / subme=9 / psy=1 / psy_rd=1.00:0.00 / mixed_ref=1 / me_range=32 / chroma_me=1 / trellis=1 / 8x8dct=1 / cqm=0 / deadzone=21,11 / fast_pskip=1 / chroma_qp_offset=-2 / threads=36 / lookahead_threads=3 / sliced_threads=0 / nr=0 / decimate=1 / interlaced=0 / bluray_compat=0 / constrained_intra=0 / bframes=6 / b_pyramid=2 / b_adapt=2 / b_bias=0 / direct=1 / weightb=1 / open_gop=0 / weightp=2 / keyint=240 / keyint_min=24 / scenecut=40 / intra_refresh=0 / rc_lookahead=40 / rc=2pass / mbtree=1 / bitrate=2200 / ratetol=1.0 / qcomp=0.60 / qpmin=0 / qpmax=69 / qpstep=4 / cplxblur=20.0 / qblur=0.5 / ip_ratio=1.40 / aq=1:1.00
    Language                                 : English
    Encoded date                             : UTC 2015-05-29 10:01:53
    Tagged date                              : UTC 2015-05-29 10:01:57
    Color primaries                          : BT.709-5, BT.1361, IEC 61966-2-4, SMPTE RP177
    Transfer characteristics                 : BT.709-5, BT.1361
    Matrix coefficients                      : BT.709-5, BT.1361, IEC 61966-2-4 709, SMPTE RP177
    Video #2
    ID                                       : 9
    Format                                   : JPEG
    Codec ID                                 : jpeg
    Duration                                 : 1h 30mn
    Bit rate mode                            : Variable
    Bit rate                                 : 1 341 bps
    Width                                    : 640 pixels
    Height                                   : 270 pixels
    Display aspect ratio                     : 2.40:1
    Frame rate mode                          : Variable
    Frame rate                               : 0.004 fps
    Minimum frame rate                       : 0.003 fps
    Maximum frame rate                       : 0.008 fps
    Color space                              : YUV
    Chroma subsampling                       : 4:2:0
    Bit depth                                : 8 bits
    Compression mode                         : Lossy
    Bits/(Pixel*Frame)                       : 1.940
    Stream size                              : 818 KiB (0%)
    Language                                 : English
    Encoded date                             : UTC 2015-05-29 10:02:15
    Tagged date                              : UTC 2015-05-29 10:02:15
    Audio #1
    ID                                       : 2
    Format                                   : AAC
    Format/Info                              : Advanced Audio Codec
    Format profile                           : LC
    Codec ID                                 : 40
    Duration                                 : 1h 30mn
    Bit rate mode                            : Variable
    Bit rate                                 : 157 Kbps
    Maximum bit rate                         : 241 Kbps
    Channel(s)                               : 2 channels
    Channel positions                        : Front: L R
    Sampling rate                            : 48.0 KHz
    Compression mode                         : Lossy
    Stream size                              : 102 MiB (6%)
    Language                                 : Russian
    Encoded date                             : UTC 2015-05-29 10:01:53
    Tagged date                              : UTC 2015-05-29 10:01:59
    Audio #2
    ID                                       : 3
    Format                                   : AAC
    Format/Info                              : Advanced Audio Codec
    Format profile                           : LC
    Codec ID                                 : 40
    Duration                                 : 1h 30mn
    Bit rate mode                            : Variable
    Bit rate                                 : 156 Kbps
    Maximum bit rate                         : 254 Kbps
    Channel(s)                               : 2 channels
    Channel positions                        : Front: L R
    Sampling rate                            : 48.0 KHz
    Compression mode                         : Lossy
    Stream size                              : 101 MiB (6%)
    Language                                 : English
    Encoded date                             : UTC 2015-05-29 10:01:53
    Tagged date                              : UTC 2015-05-29 10:02:10
    Text #1
    ID                                       : 4
    Format                                   : Timed text
    Muxing mode                              : sbtl
    Codec ID                                 : tx3g
    Duration                                 : 1h 30mn
    Bit rate mode                            : Variable
    Bit rate                                 : 0 bps
    Stream size                              : 287 Bytes (0%)
    Language                                 : Russian
    Encoded date                             : UTC 2015-05-29 10:01:53
    Tagged date                              : UTC 2015-05-29 10:02:07
    Text #2
    ID                                       : 5
    Format                                   : Timed text
    Muxing mode                              : sbtl
    Codec ID                                 : tx3g
    Duration                                 : 1h 30mn
    Bit rate mode                            : Variable
    Bit rate                                 : 76 bps
    Stream size                              : 50.6 KiB (0%)
    Language                                 : Russian
    Encoded date                             : UTC 2015-05-29 10:01:53
    Tagged date                              : UTC 2015-05-29 10:02:09
    Text #3
    ID                                       : 6
    Format                                   : Timed text
    Muxing mode                              : sbtl
    Codec ID                                 : tx3g
    Duration                                 : 1h 24mn
    Bit rate mode                            : Variable
    Bit rate                                 : 73 bps
    Stream size                              : 45.1 KiB (0%)
    Language                                 : English
    Encoded date                             : UTC 2015-05-29 10:01:53
    Tagged date                              : UTC 2015-05-29 10:02:09
    Text #4
    ID                                       : 7
    Format                                   : Timed text
    Muxing mode                              : sbtl
    Codec ID                                 : tx3g
    Duration                                 : 1h 30mn
    Bit rate mode                            : Variable
    Bit rate                                 : 73 bps
    Stream size                              : 48.4 KiB (0%)
    Language                                 : Ukrainian
    Encoded date                             : UTC 2015-05-29 10:01:53
    Tagged date                              : UTC 2015-05-29 10:02:09
    Text #5
    ID                                       : 8
    Format                                   : Apple text
    Codec ID                                 : text
    Duration                                 : 1h 30mn
    Bit rate mode                            : Constant
    Bit rate                                 : 1 bps
    Stream size                              : 520 Bytes (0%)
    Language                                 : English
    Encoded date                             : UTC 2015-05-29 10:02:10
    Tagged date                              : UTC 2015-05-29 10:02:10
    Menu
    00:00:00.000                             : 00:00:00.000
    00:04:29.853                             : 00:04:29.769
    00:10:40.014                             : 00:10:39.931
    00:15:32.974                             : 00:15:32.890
    00:20:31.105                             : 00:20:31.021
    00:24:41.814                             : 00:24:41.730
    00:26:53.654                             : 00:26:53.570
    00:30:49.765                             : 00:30:49.681
    00:35:51.524                             : 00:35:51.441
    00:40:20.835                             : 00:40:20.627
    00:45:47.453                             : 00:45:47.370
    00:49:24.879                             : 00:49:24.795
    00:53:29.039                             : 00:53:28.956
    00:56:43.734                             : 00:56:43.650
    01:00:46.017                             : 01:00:45.851
    01:03:45.071                             : 01:03:44.988
    01:09:31.125                             : 01:09:31.042
    01:14:06.692                             : 01:14:06.609
    01:19:51.036                             : 01:19:50.953
    01:24:33.610                             : 01:24:33.527

    x264 лог

    x264 [info]: frame I:1205  Avg QP:14.58  size: 82352
    x264 [info]: frame P:30392 Avg QP:17.28  size: 22731
    x264 [info]: frame B:98686 Avg QP:19.31  size:  7120
    x264 [info]: consecutive B-frames:  3.5%  4.0% 10.3% 14.9% 16.1% 46.2%  5.1%
    x264 [info]: mb I  I16..4: 10.3% 69.7% 20.0%
    x264 [info]: mb P  I16..4:  2.2% 11.3%  2.2%  P16..4: 37.3% 25.7% 15.3%  0.0%  0.0%    skip: 6.0%
    x264 [info]: mb B  I16..4:  0.1%  1.1%  0.2%  B16..8: 43.2% 10.9%  3.0%  direct: 4.5%  skip:36.9%  L0:45.3% L1:46.7% BI: 8.0%
    x264 [info]: 8x8 transform intra:72.4% inter:69.6%
    x264 [info]: coded y,uvDC,uvAC intra: 87.0% 90.9% 73.7% inter: 29.4% 28.9% 5.2%
    x264 [info]: i16 v,h,dc,p: 34% 14%  6% 45%
    x264 [info]: i8 v,h,dc,ddl,ddr,vr,hd,vl,hu:  9%  7%  3% 11% 16% 15% 14% 13% 12%
    x264 [info]: i4 v,h,dc,ddl,ddr,vr,hd,vl,hu: 10%  7%  2% 10% 16% 16% 14% 12% 13%
    x264 [info]: i8c dc,h,v,p: 40% 21% 19% 21%
    x264 [info]: Weighted P-Frames: Y:3.3% UV:2.2%
    x264 [info]: ref P L0: 48.1% 10.6% 17.2%  6.9%  5.6%  3.8%  3.4%  2.0%  2.0%  0.4%  0.0%
    x264 [info]: ref B L0: 72.5% 12.8%  6.1%  3.1%  2.3%  1.8%  1.0%  0.4%
    x264 [info]: ref B L1: 91.5%  8.5%
    x264 [info]: kb/s:2197.61

    Скриншоты

    -

    Релиз подготовлен для просмотра на Apple TV, iPad, iPhone, iPod Touch.
    Для просмотра данного релиза на компьютере с ОС Windows рекомендуется использовать VLC media player
    Скачать .torrent

    Скачать торрент-файл бесплатно и на максимальной скорости!

    Как скачивать? · Что такое торрент? · Рейтинг и ограничения

    !ВНИМАНИЕ!
    Сайт не распространяет и не хранит электронные версии произведений, а занимается лишь лишь предоставлением доступа к создаваемому пользователями каталогу ссылок на торрент-файлы, которые содержат только списки хеш-сумм, убедительная просьба с жалобами обращаться напрямую к пользователю. Файлы для обмена на трекере предоставлены пользователями сайта, и администрация не несёт ответственности за их содержание. Просьба не заливать файлы, защищенные авторскими правами, а также файлы нелегального содержания!


    _________________
    [Профиль] [ЛС]
    Показать сообщения:    
    Ответить на тему

    Текущее время: Сегодня, в 14:15

    Часовой пояс: GMT + 2



    Вы не можете начинать темы
    Вы не можете отвечать на сообщения
    Вы не можете редактировать свои сообщения
    Вы не можете удалять свои сообщения
    Вы не можете голосовать в опросах
    Вы не можете прикреплять файлы к сообщениям
    Вы не можете скачивать файлы