BitTorrentTracker PerecTracker.org
BitTorrentTracker PerecTracker.org
    
Регистрация  ·  Вход
 
 · 
Забыли пароль?

  • [iPad] Убийцы фазана / Fasandræberne (Миккель Нёргор / Mikkel Nørgaard ) [2014, Дания, Германия, Швеция , Детектив, триллер, криминал, BDRip, SD (576p)] VO + Original + sub (rus, eng, dan)

    Ответить на тему
     
    Автор Сообщение

    rechyn

    Создавать темы 02-Сен-2015 12:53

           

    [Цитировать]

    Убийцы фазана / Fasandræberne
    -
    6.856 / 10 7.10 / 10
    -Год выпуска: 2014
    Страна: Дания, Германия, Швеция
    Жанр: Детектив, триллер, криминал
    Продолжительность: 01:59:41
    Перевод: Одноголосый закадровый (А. Алексеев)
    Оригинальная аудиодорожка: Есть
    Cубтитры: Русские, Английские, Датские
    Режиссёр: Миккель Нёргор
    Сценарий: Николай Арсель, Расмус Хейстерберг, Юсси Адлер-Олсен
    Продюсер: Йонас Баггер, Петер Ольбек Йенсен, Луиза Вест
    Оператор: Эрик Кресс
    Композитор: Патрик Андрен, Уно Хелмерссон, Юхан Сёдерквист
    Художник: Расмус Тьеллесен, Зази Кнеппер
    Монтаж: Мортен Эгхольм, Фредерик Штрунк
    В ролях: Николай Ли Каас, Фарес Фарес, Даника Куркик, Йохан Филип Асбек, Давид Денсик, Сара-Софи Бусснина, Сёрен Пильмарк, Николай Грот, Оле Дюпон, Камилла Готтлиб
    Бюджет: €5 200 000
    Мировая премьера: 18 сентября 2014
    Описание: В 1994 году двое детей близнецов были найдены зверски убитыми в летнем загородном доме. Ряд фактов указывал на причастность к делу группы молодых студентов, но расследование было прекращено, после того как местный отшельник признал себя виновным в этом инциденте.-Качество исходника: BDRemux
    Качество: BDRip
    Тип: SD (576p)
    Контейнер: M4V
    Видео: H.264, 1024x432, 2.40:1, 2 200 Kbps, 23.976 fps
    Аудио 1: Русский/Одноголосый закадровый (А. Алексеев), AAC / 2.0 / 157 Kbps / 48.0 KHz
    Аудио 2: Датский/Оригинальная дорожка , AAC / 2.0 / 157 Kbps / 48.0 KHz
    Субтитры 1: Русские полные
    Субтитры 2: Английские полные
    Субтитры 3: Датские полные
    -

    iTunes Meta Tags

    Sort Name: Убийцы фазана
    XID: Apple:vendor_id:2014-794374
    contentID: 794374
    Screenwriters: Николай Арсель, Расмус Хейстерберг, Юсси Адлер-Олсен
    Producers: Йонас Баггер, Петер Ольбек Йенсен, Луиза Вест
    Director: Миккель Нёргор
    Cast: Николай Ли Каас, Фарес Фарес, Даника Куркик, Йохан Филип Асбек, Давид Денсик, Сара-Софи Бусснина, Сёрен Пильмарк, Николай Грот, Оле Дюпон, Камилла Готтлиб
    Long Description: В 1994 году двое детей близнецов были найдены зверски убитыми в летнем загородном доме. Ряд фактов указывал на причастность к делу группы молодых студентов, но расследование было прекращено, после того как местный отшельник признал себя виновным в этом инциденте.
    20 лет спустя это дело попадает на стол Карлса Мёрка, который начинает подозревать, что в нем что-то не так...
    Description: В 1994 году двое детей близнецов были найдены зверски убитыми в летнем загородном доме. Ряд фактов указывал на причастность к делу группы молодых студентов, но расследование было прекращено, после того как местный отшельник признал себя виновным в этом инциденте.
    20 лет спустя это дело попадает на стол Карлса Мёрка, который начинает подозревать, что в нем что-то не так...
    Release Date: 2014-09-18T08:00:00Z
    Artist: Миккель Нёргор
    Name: Убийцы фазана

    MediaInfo

    General
    Complete name                            : /Users/imac/HandBrake/Fasandræberne.(SD).(pk).m4v
    Format                                   : MPEG-4
    Codec ID                                 : M4V
    File size                                : 2.11 GiB
    Duration                                 : 1h 59mn
    Overall bit rate mode                    : Variable
    Overall bit rate                         : 2 522 Kbps
    Movie name                               : Убийцы фазана
    Performer                                : Миккель Нёргор
    Recorded date                            : UTC 2014-09-18 08:00:00
    Encoded date                             : UTC 2015-06-02 09:49:46
    Tagged date                              : UTC 2015-06-02 09:57:17
    Cover                                    : Yes
    sonm                                     : Убийцы фазана
    desc                                     : В 1994 году двое детей близнецов были найдены зверски убитыми в летнем загородном доме. Ряд фактов указывал на причастность к делу группы молодых студентов, но расследование было прекращено, после того как местный отшельник признал себя виновным в этом инциденте.  / 20 лет спустя это дело попадает на стол Карлса Мёрка, который начинает подозревать, что в нем что-то не так...
    ldes                                     : В 1994 году двое детей близнецов были найдены зверски убитыми в летнем загородном доме. Ряд фактов указывал на причастность к делу группы молодых студентов, но расследование было прекращено, после того как местный отшельник признал себя виновным в этом инциденте.  / 20 лет спустя это дело попадает на стол Карлса Мёрка, который начинает подозревать, что в нем что-то не так...
    stik                                     : 9
    rtng                                     : 0
    cnID                                     : 794374
    xid                                      : Apple:vendor_id:2014-794374
    iTunMOVI                                 : <?xml version=\"1.0\" encoding=\"UTF-8\"?> / <!DOCTYPE plist PUBLIC \"-//Apple//DTD PLIST 1.0//EN\" \"http://anonym.to/?http://www.apple.com/DTDs/PropertyList-1.0.dtd\"> / <plist version=\"1.0\"> / <dict> /  <key>cast</key> /  <array> /   <dict> /    <key>name</key> /    <string>Николай Ли Каас</string> /   </dict> /   <dict> /    <key>name</key> /    <string>Фарес Фарес</string> /   </dict> /   <dict> /    <key>name</key> /    <string>Даника Куркик</string> /   </dict> /   <dict> /    <key>name</key> /    <string>Йохан Филип Асбек</string> /   </dict> /   <dict> /    <key>name</key> /    <string>Давид Денсик</string> /   </dict> /   <dict> /    <key>name</key> /    <string>Сара-Софи Бусснина</string> /   </dict> /   <dict> /    <key>name</key> /    <string>Сёрен Пильмарк</string> /   </dict> /   <dict> /    <key>name</key> /    <string>Николай Грот</string> /   </dict> /   <dict> /    <key>name</key> /    <string>Оле Дюпон</string> /   </dict> /   <dict> /    <key>name</key> /    <string>Камилла Готтлиб</string> /   </dict> /  </array> /  <key>directors</key> /  <array> /   <dict> /    <key>name</key> /    <string>Миккель Нёргор</string> /   </dict> /  </array> /  <key>producers</key> /  <array> /   <dict> /    <key>name</key> /    <string>Йонас Баггер</string> /   </dict> /   <dict> /    <key>name</key> /    <string>Петер Ольбек Йенсен</string> /   </dict> /   <dict> /    <key>name</key> /    <string>Луиза Вест</string> /   </dict> /  </array> /  <key>screenwriters</key> /  <array> /   <dict> /    <key>name</key> /    <string>Николай Арсель</string> /   </dict> /   <dict> /    <key>name</key> /    <string>Расмус Хейстерберг</string> /   </dict> /   <dict> /    <key>name</key> /    <string>Юсси Адлер-Олсен</string> /   </dict> /  </array> / </dict> / </plist>
    Video #1
    ID                                       : 1
    Format                                   : AVC
    Format/Info                              : Advanced Video Codec
    Format profile                           : High@L3.1
    Format settings, CABAC                   : Yes
    Format settings, ReFrames                : 9 frames
    Codec ID                                 : avc1
    Codec ID/Info                            : Advanced Video Coding
    Duration                                 : 1h 59mn
    Bit rate mode                            : Variable
    Bit rate                                 : 2 200 Kbps
    Width                                    : 1 024 pixels
    Height                                   : 432 pixels
    Display aspect ratio                     : 2.40:1
    Frame rate mode                          : Variable
    Frame rate                               : 23.976 fps
    Minimum frame rate                       : 23.974 fps
    Maximum frame rate                       : 23.981 fps
    Color space                              : YUV
    Chroma subsampling                       : 4:2:0
    Bit depth                                : 8 bits
    Scan type                                : Progressive
    Bits/(Pixel*Frame)                       : 0.207
    Stream size                              : 1.84 GiB (87%)
    Writing library                          : x264 core 142 r2479 dd79a61
    Encoding settings                        : cabac=1 / ref=9 / deblock=1:0:0 / analyse=0x3:0x113 / me=umh / subme=9 / psy=1 / psy_rd=1.00:0.00 / mixed_ref=1 / me_range=32 / chroma_me=1 / trellis=1 / 8x8dct=1 / cqm=0 / deadzone=21,11 / fast_pskip=1 / chroma_qp_offset=-2 / threads=36 / lookahead_threads=3 / sliced_threads=0 / nr=0 / decimate=1 / interlaced=0 / bluray_compat=0 / constrained_intra=0 / bframes=6 / b_pyramid=2 / b_adapt=2 / b_bias=0 / direct=1 / weightb=1 / open_gop=0 / weightp=2 / keyint=240 / keyint_min=24 / scenecut=40 / intra_refresh=0 / rc_lookahead=40 / rc=2pass / mbtree=1 / bitrate=2200 / ratetol=1.0 / qcomp=0.60 / qpmin=0 / qpmax=69 / qpstep=4 / cplxblur=20.0 / qblur=0.5 / ip_ratio=1.40 / aq=1:1.00
    Language                                 : Danish
    Encoded date                             : UTC 2015-06-02 09:49:46
    Tagged date                              : UTC 2015-06-02 09:49:51
    Color primaries                          : BT.709-5, BT.1361, IEC 61966-2-4, SMPTE RP177
    Transfer characteristics                 : BT.709-5, BT.1361
    Matrix coefficients                      : BT.709-5, BT.1361, IEC 61966-2-4 709, SMPTE RP177
    Video #2
    ID                                       : 8
    Format                                   : JPEG
    Codec ID                                 : jpeg
    Duration                                 : 1h 59mn
    Bit rate mode                            : Variable
    Bit rate                                 : 436 bps
    Width                                    : 640 pixels
    Height                                   : 270 pixels
    Display aspect ratio                     : 2.40:1
    Frame rate mode                          : Constant
    Frame rate                               : 0.002 fps
    Color space                              : YUV
    Chroma subsampling                       : 4:2:0
    Bit depth                                : 8 bits
    Compression mode                         : Lossy
    Bits/(Pixel*Frame)                       : 1.262
    Stream size                              : 319 KiB (0%)
    Language                                 : Danish
    Encoded date                             : UTC 2015-06-02 09:49:57
    Tagged date                              : UTC 2015-06-02 09:49:57
    Audio #1
    ID                                       : 2
    Format                                   : AAC
    Format/Info                              : Advanced Audio Codec
    Format profile                           : LC
    Codec ID                                 : 40
    Duration                                 : 1h 59mn
    Bit rate mode                            : Variable
    Bit rate                                 : 157 Kbps
    Maximum bit rate                         : 243 Kbps
    Channel(s)                               : 2 channels
    Channel positions                        : Front: L R
    Sampling rate                            : 48.0 KHz
    Compression mode                         : Lossy
    Stream size                              : 134 MiB (6%)
    Language                                 : Russian
    Encoded date                             : UTC 2015-06-02 09:49:46
    Tagged date                              : UTC 2015-06-02 09:49:54
    Audio #2
    ID                                       : 3
    Format                                   : AAC
    Format/Info                              : Advanced Audio Codec
    Format profile                           : LC
    Codec ID                                 : 40
    Duration                                 : 1h 59mn
    Bit rate mode                            : Variable
    Bit rate                                 : 157 Kbps
    Maximum bit rate                         : 241 Kbps
    Channel(s)                               : 2 channels
    Channel positions                        : Front: L R
    Sampling rate                            : 48.0 KHz
    Compression mode                         : Lossy
    Stream size                              : 135 MiB (6%)
    Language                                 : Danish
    Encoded date                             : UTC 2015-06-02 09:49:46
    Tagged date                              : UTC 2015-06-02 09:49:54
    Text #1
    ID                                       : 4
    Format                                   : Timed text
    Muxing mode                              : sbtl
    Codec ID                                 : tx3g
    Duration                                 : 1h 55mn
    Bit rate mode                            : Variable
    Bit rate                                 : 50 bps
    Stream size                              : 41.9 KiB (0%)
    Language                                 : Russian
    Encoded date                             : UTC 2015-06-02 09:49:46
    Tagged date                              : UTC 2015-06-02 09:49:46
    Text #2
    ID                                       : 5
    Format                                   : Timed text
    Muxing mode                              : sbtl
    Codec ID                                 : tx3g
    Duration                                 : 1h 59mn
    Bit rate mode                            : Variable
    Bit rate                                 : 38 bps
    Stream size                              : 32.8 KiB (0%)
    Language                                 : English
    Encoded date                             : UTC 2015-06-02 09:49:46
    Tagged date                              : UTC 2015-06-02 09:49:46
    Text #3
    ID                                       : 6
    Format                                   : Timed text
    Muxing mode                              : sbtl
    Codec ID                                 : tx3g
    Duration                                 : 1h 59mn
    Bit rate mode                            : Variable
    Bit rate                                 : 39 bps
    Stream size                              : 34.1 KiB (0%)
    Language                                 : Danish
    Encoded date                             : UTC 2015-06-02 09:49:46
    Tagged date                              : UTC 2015-06-02 09:49:46
    Text #4
    ID                                       : 7
    Format                                   : Apple text
    Codec ID                                 : text
    Duration                                 : 1h 59mn
    Bit rate mode                            : Variable
    Bit rate                                 : 0 bps
    Stream size                              : 279 Bytes (0%)
    Language                                 : Danish
    Encoded date                             : UTC 2015-06-02 09:49:54
    Tagged date                              : UTC 2015-06-02 09:49:54
    Menu
    00:00:00.000                             : Chapter 1
    00:10:00.099                             : Chapter 2
    00:19:59.740                             : Chapter 3
    00:29:59.881                             : Chapter 4
    00:39:59.731                             : Chapter 5
    00:49:59.914                             : Chapter 6
    00:59:59.679                             : Chapter 7
    01:10:00.029                             : Chapter 8
    01:20:00.087                             : Chapter 9
    01:30:00.103                             : Chapter 10
    01:39:59.660                             : Chapter 11
    01:49:59.885                             : Chapter 12

    x264 лог

    x264 [info]: frame I:1620  Avg QP: 9.29  size: 78514
    x264 [info]: frame P:37556 Avg QP:12.09  size: 24776
    x264 [info]: frame B:133006 Avg QP:13.96  size:  6902
    x264 [info]: consecutive B-frames:  2.5%  3.0%  8.8% 15.6% 18.1% 37.0% 14.9%
    x264 [info]: mb I  I16..4: 11.0% 68.5% 20.5%
    x264 [info]: mb P  I16..4:  2.4% 10.9%  2.4%  P16..4: 30.6% 25.7% 18.3%  0.0%  0.0%    skip: 9.8%
    x264 [info]: mb B  I16..4:  0.3%  1.1%  0.3%  B16..8: 34.6% 14.9%  4.1%  direct: 4.8%  skip:39.8%  L0:47.9% L1:41.0% BI:11.1%
    x264 [info]: 8x8 transform intra:67.9% inter:66.1%
    x264 [info]: coded y,uvDC,uvAC intra: 79.7% 78.8% 68.5% inter: 27.2% 22.9% 7.0%
    x264 [info]: i16 v,h,dc,p: 48% 12%  9% 32%
    x264 [info]: i8 v,h,dc,ddl,ddr,vr,hd,vl,hu: 14% 11% 14%  8% 10% 11% 10% 11% 12%
    x264 [info]: i4 v,h,dc,ddl,ddr,vr,hd,vl,hu: 11%  9%  6%  9% 14% 14% 13% 11% 12%
    x264 [info]: i8c dc,h,v,p: 53% 20% 17% 10%
    x264 [info]: Weighted P-Frames: Y:3.3% UV:1.9%
    x264 [info]: ref P L0: 46.3%  6.6% 17.6%  8.1%  6.5%  5.0%  4.3%  2.6%  2.6%  0.4%  0.0%
    x264 [info]: ref B L0: 62.7% 15.4%  8.7%  4.7%  3.5%  2.9%  1.6%  0.5%
    x264 [info]: ref B L1: 88.6% 11.4%
    x264 [info]: kb/s:2200.83

    Скриншоты

    -

    Релиз подготовлен для просмотра на Apple TV, iPad, iPhone, iPod Touch.
    Для просмотра данного релиза на компьютере с ОС Windows рекомендуется использовать VLC media player
    Скачать .torrent

    Скачать торрент-файл бесплатно и на максимальной скорости!

    Как скачивать? · Что такое торрент? · Рейтинг и ограничения

    !ВНИМАНИЕ!
    Сайт не распространяет и не хранит электронные версии произведений, а занимается лишь лишь предоставлением доступа к создаваемому пользователями каталогу ссылок на торрент-файлы, которые содержат только списки хеш-сумм, убедительная просьба с жалобами обращаться напрямую к пользователю. Файлы для обмена на трекере предоставлены пользователями сайта, и администрация не несёт ответственности за их содержание. Просьба не заливать файлы, защищенные авторскими правами, а также файлы нелегального содержания!


    _________________
    [Профиль] [ЛС]
    Показать сообщения:    
    Ответить на тему

    Текущее время: Сегодня, в 05:15

    Часовой пояс: GMT + 2



    Вы не можете начинать темы
    Вы не можете отвечать на сообщения
    Вы не можете редактировать свои сообщения
    Вы не можете удалять свои сообщения
    Вы не можете голосовать в опросах
    Вы не можете прикреплять файлы к сообщениям
    Вы не можете скачивать файлы