BitTorrentTracker PerecTracker.org
BitTorrentTracker PerecTracker.org
    
Регистрация  ·  Вход
 
 · 
Забыли пароль?

  • Чистое небо (Григорий Чухрай) [1961, драма, мелодрама, военный, DVDRip, 480p] Original

    Ответить на тему
     
    Автор Сообщение

    rechyn

    Создавать темы 02-Сен-2015 12:53

           

    [Цитировать]

    Чистое небо

    Год выпуска: 1961
    Страна: СССР
    Жанр: драма, мелодрама, военный
    Продолжительность: 01:43:52
    Режиссёр: Григорий Чухрай
    Сценарий: Даниил Храбровицкий
    В ролях: Нина Дробышева, Евгений Урбанский, Наталья Кузьмина, Виталий Коняев, Георгий Куликов, Леонид Князев, Георгий Георгиу, Олег Табаков, Алик Крылов, Виталий Бондарёв
    Описание:
    Летчик-испытатель Астахов, герой Советского Союза, во время войны попадает в плен. После войны вернувшегося Астахова исключают из партии, увольняют с работы и лишают правительственной награды. Долгие годы герой не имеет возможности вернуться к своей профессии. Астахов спивается, но любовь Саши и вера в себя спасают его и возвращают надежду на справедливость...
    Исходник: DVD9 | Ruscico
    Контейнер: m4v
    Видео: H.264, 632x480, 1800 kbps, 29,97 fps
    Аудио: AAC, 2ch, 160 kbps, 48 kHz
    Главы: прописаны

    iTunes Meta Tags

    Name: Чистое небо
    Artist: Григорий Чухрай
    Release Date: 1961-05-20T08:00:00Z
    Description: Летчик-испытатель Астахов, герой Советского Союза, во время войны попадает в плен. После войны вернувшегося Астахова исключают из партии, увольняют с работы и лишают правительственной награды.
    Long Description: Летчик-испытатель Астахов, герой Советского Союза, во время войны попадает в плен. После войны вернувшегося Астахова исключают из партии, увольняют с работы и лишают правительственной награды. Долгие годы герой не имеет возможности вернуться к своей профессии. Астахов спивается, но любовь Саши и вера в себя спасают его и возвращают надежду на справедливость...
    Cast: Нина Дробышева, Евгений Урбанский, Наталья Кузьмина, Виталий Коняев, Георгий Куликов, Леонид Князев, Георгий Георгиу, Олег Табаков, Алик Крылов, Виталий Бондарёв
    Director: Григорий Чухрай
    Screenwriters: Даниил Храбровицкий
    contentID: 45513
    XID: Apple:vendor_id:1961-45513

    x264 log

    x264 [info]: frame I:3125 Avg QP:18.48 size: 18269
    x264 [info]: frame P:183657 Avg QP:20.71 size: 7324
    x264 [info]: mb I I16..4: 37.6% 0.0% 62.4%
    x264 [info]: mb P I16..4: 1.5% 0.0% 2.6% P16..4: 48.0% 17.9% 7.0% 0.0% 0.0% skip:23.1%
    x264 [info]: coded y,uvDC,uvAC intra: 67.6% 73.0% 29.4% inter: 28.3% 41.5% 1.4%
    x264 [info]: i16 v,h,dc,p: 27% 19% 12% 43%
    x264 [info]: i4 v,h,dc,ddl,ddr,vr,hd,vl,hu: 12% 8% 5% 12% 16% 17% 12% 11% 7%
    x264 [info]: i8c dc,h,v,p: 47% 19% 23% 11%
    x264 [info]: ref P L0: 74.4% 16.1% 9.6%
    x264 [info]: kb/s:1800.02

    MediaInfo

    General
    Format : MPEG-4
    Format profile : Base Media / Version 2
    Codec ID : mp42
    File size : 1.43 GiB
    Duration : 1h 43mn
    Overall bit rate mode : Variable
    Overall bit rate : 1 970 Kbps
    Movie name : Чистое небо
    Performer : Григорий Чухрай
    Director : Григорий Чухрай
    Actor : Нина Дробышева / Евгений Урбанский / Наталья Кузьмина / Виталий Коняев / Георгий Куликов / Леонид Князев / Георгий Георгиу / Олег Табаков / Алик Крылов / Виталий Бондарёв
    Screenplay by : Даниил Храбровицкий
    Production studio : Мосфильм
    Genre : драма, мелодрама, военный
    ContentType : Short Film
    Description : Летчик-испытатель Астахов, герой Советского Союза, во время войны попадает в плен. После войны вернувшегося Астахова исключают из партии, увольняют с работы и лишают правительственной награды
    Recorded date : 1961-05-19
    Encoded date : UTC 1904-01-01 00:00:00
    Tagged date : UTC 2015-06-11 05:17:08
    Cover : Yes
    Rating : None
    LongDescription : Летчик-испытатель Астахов, герой Советского Союза, во время войны попадает в плен. После войны вернувшегося Астахова исключают из партии, увольняют с работы и лишают правительственной награды. Долгие годы герой не имеет возможности вернуться к своей профессии. Астахов спивается, но любовь Саши и вера в себя спасают его и возвращают надежду на справедливость...
    AppleStoreCatalogID : 45513
    Vendor : Apple:vendor_id:1961-45513
    Video #1
    ID : 1
    Format : AVC
    Format/Info : Advanced Video Codec
    Format profile : Baseline@L3.0
    Format settings, CABAC : No
    Format settings, ReFrames : 3 frames
    Codec ID : avc1
    Codec ID/Info : Advanced Video Coding
    Duration : 1h 43mn
    Bit rate : 1 800 Kbps
    Width : 632 pixels
    Height : 480 pixels
    Display aspect ratio : 4:3
    Frame rate mode : Constant
    Frame rate : 29.970 fps
    Color space : YUV
    Chroma subsampling : 4:2:0
    Bit depth : 8 bits
    Scan type : Progressive
    Bits/(Pixel*Frame) : 0.198
    Stream size : 1.31 GiB (91%)
    Writing library : x264 core 142 r2479 dd79a61
    Encoding settings : cabac=0 / ref=3 / deblock=1:-1:-1 / analyse=0x1:0x111 / me=umh / subme=9 / psy=1 / psy_rd=1.00:0.00 / mixed_ref=1 / me_range=32 / chroma_me=1 / trellis=2 / 8x8dct=0 / cqm=0 / deadzone=21,11 / fast_pskip=1 / chroma_qp_offset=-2 / threads=6 / lookahead_threads=1 / sliced_threads=0 / nr=0 / decimate=1 / interlaced=0 / bluray_compat=0 / constrained_intra=0 / bframes=0 / weightp=0 / keyint=300 / keyint_min=30 / scenecut=40 / intra_refresh=0 / rc_lookahead=40 / rc=2pass / mbtree=1 / bitrate=1800 / ratetol=1.0 / qcomp=0.60 / qpmin=0 / qpmax=69 / qpstep=4 / cplxblur=20.0 / qblur=0.5 / vbv_maxrate=5000 / vbv_bufsize=5000 / nal_hrd=none / filler=0 / ip_ratio=1.40 / aq=1:1.00
    Language : Russian
    Encoded date : UTC 1904-01-01 00:00:00
    Tagged date : UTC 1904-01-01 00:00:00
    Color primaries : BT.601 NTSC
    Transfer characteristics : BT.709
    Matrix coefficients : BT.601
    Color range : Limited
    Video #2
    ID : 4
    Format : JPEG
    Codec ID : jpeg
    Duration : 1h 43mn
    Bit rate mode : Variable
    Bit rate : 1 144 bps
    Width : 632 pixels
    Height : 480 pixels
    Display aspect ratio : 4:3
    Frame rate mode : Variable
    Frame rate : 0.003 fps
    Minimum frame rate : 0.002 fps
    Maximum frame rate : 0.006 fps
    Color space : YUV
    Chroma subsampling : 4:2:0
    Bit depth : 8 bits
    Compression mode : Lossy
    Bits/(Pixel*Frame) : 1.257
    Stream size : 931 KiB (0%)
    Language : Russian
    Encoded date : UTC 2015-06-05 09:41:40
    Tagged date : UTC 2015-06-05 09:41:40
    Audio
    ID : 2
    Format : AAC
    Format/Info : Advanced Audio Codec
    Format profile : LC
    Codec ID : 40
    Duration : 1h 43mn
    Bit rate mode : Variable
    Bit rate : 161 Kbps
    Maximum bit rate : 251 Kbps
    Channel(s) : 2 channels
    Channel positions : Front: L R
    Sampling rate : 48.0 KHz
    Compression mode : Lossy
    Stream size : 120 MiB (8%)
    Title : Stereo
    Language : Russian
    Encoded date : UTC 1904-01-01 00:00:00
    Tagged date : UTC 1904-01-01 00:00:00
    Menu
    ID : 3
    Codec ID : text
    Duration : 1h 43mn
    Language : Russian
    Encoded date : UTC 1904-01-01 00:00:00
    Tagged date : UTC 1904-01-01 00:00:00
    00:00:00.000 : Chapter 1
    00:03:47.994 : Chapter 2
    00:09:04.944 : Chapter 3
    00:12:17.670 : Chapter 4
    00:15:25.758 : Chapter 5
    00:18:39.452 : Chapter 6
    00:23:42.955 : Chapter 7
    00:32:56.074 : Chapter 8
    00:40:54.686 : Chapter 9
    00:47:58.709 : Chapter 10
    00:51:35.392 : Chapter 11
    00:55:04.768 : Chapter 12
    01:00:15.812 : Chapter 13
    01:06:54.043 : Chapter 14
    01:10:25.488 : Chapter 15
    01:19:20.723 : Chapter 16
    01:23:17.593 : Chapter 17
    01:31:01.723 : Chapter 18
    01:36:47.201 : Chapter 19
    01:40:53.714 : Chapter 20
    Bit rate mode : VBR

    Скриншоты

    Скачать .torrent

    Скачать торрент-файл бесплатно и на максимальной скорости!

    Как скачивать? · Что такое торрент? · Рейтинг и ограничения

    !ВНИМАНИЕ!
    Сайт не распространяет и не хранит электронные версии произведений, а занимается лишь лишь предоставлением доступа к создаваемому пользователями каталогу ссылок на торрент-файлы, которые содержат только списки хеш-сумм, убедительная просьба с жалобами обращаться напрямую к пользователю. Файлы для обмена на трекере предоставлены пользователями сайта, и администрация не несёт ответственности за их содержание. Просьба не заливать файлы, защищенные авторскими правами, а также файлы нелегального содержания!


    _________________
    [Профиль] [ЛС]
    Показать сообщения:    
    Ответить на тему

    Текущее время: Сегодня, в 16:50

    Часовой пояс: GMT + 2



    Вы не можете начинать темы
    Вы не можете отвечать на сообщения
    Вы не можете редактировать свои сообщения
    Вы не можете удалять свои сообщения
    Вы не можете голосовать в опросах
    Вы не можете прикреплять файлы к сообщениям
    Вы не можете скачивать файлы