BitTorrentTracker PerecTracker.org
BitTorrentTracker PerecTracker.org
    
Регистрация  ·  Вход
 
 · 
Забыли пароль?

  • А если это любовь? (Юлий Райзман) [1962, драма, DVDRip, 480p] Original

    Ответить на тему
     
    Автор Сообщение

    rechyn

    Создавать темы 02-Сен-2015 12:53

           

    [Цитировать]

    А если это любовь?

    Год выпуска: 1962
    Страна: СССР
    Жанр: драма
    Продолжительность: 01:36:11
    Режиссёр: Юлий Райзман
    Сценарий: Иосиф Ольшанский, Юлий Райзман, Нина Руднева
    В ролях: Жанна Прохоренко, Игорь Пушкарев, Александра Назарова, Нина Шорина, Надежда Федосова, Софья Павлова, Андрей Миронов, Евгений Жариков, Виктор Хохряков, Мария Дурасова
    Описание:
    Десятиклассники Ксеня и Борис однажды осознают, что их связывает нечто большее, чем просто дружба. Но первое, робкое чувство, не оставшееся тайной для окружающих, сталкивается с насмешками одноклассников, ханжеством и грубым вмешательством взрослых - в первую очередь педагогов. Сумеют ли юные герои сохранить свою любовь?
    Исходник: DVD5
    Контейнер: m4v
    Видео: H.264, 640@733x444, 1800 kbps, 25 fps
    Аудио: AAC, 2ch, 160 kbps, 48 kHz
    Главы: прописаны

    iTunes Meta Tags

    Name: А если это любовь?
    Artist: Юлий Райзман
    Release Date: 1962-03-19T08:00:00Z
    Description: Десятиклассники Ксеня и Борис однажды осознают, что их связывает нечто большее, чем просто дружба.
    Long Description: Десятиклассники Ксеня и Борис однажды осознают, что их связывает нечто большее, чем просто дружба. Но первое, робкое чувство, не оставшееся тайной для окружающих, сталкивается с насмешками одноклассников, ханжеством и грубым вмешательством взрослых - в первую очередь педагогов. Сумеют ли юные герои сохранить свою любовь?
    Cast: Жанна Прохоренко, Игорь Пушкарев, Александра Назарова, Нина Шорина, Надежда Федосова, Софья Павлова, Андрей Миронов, Евгений Жариков, Виктор Хохряков, Мария Дурасова
    Director: Юлий Райзман
    Screenwriters: Иосиф Ольшанский, Юлий Райзман, Нина Руднева
    contentID: 43394
    XID: Apple:vendor_id:1962-43394

    x264 log

    x264 [info]: frame I:1294 Avg QP:24.04 size: 25692
    x264 [info]: frame P:142992 Avg QP:26.69 size: 8849
    x264 [info]: mb I I16..4: 36.7% 0.0% 63.3%
    x264 [info]: mb P I16..4: 1.6% 0.0% 1.7% P16..4: 59.0% 22.1% 8.5% 0.0% 0.0% skip: 7.0%
    x264 [info]: coded y,uvDC,uvAC intra: 91.2% 58.8% 18.3% inter: 39.8% 39.9% 0.4%
    x264 [info]: i16 v,h,dc,p: 31% 24% 15% 30%
    x264 [info]: i4 v,h,dc,ddl,ddr,vr,hd,vl,hu: 8% 5% 4% 14% 18% 17% 15% 11% 9%
    x264 [info]: i8c dc,h,v,p: 67% 16% 13% 3%
    x264 [info]: ref P L0: 67.2% 20.1% 12.7%
    x264 [info]: kb/s:1800.04

    MediaInfo

    General
    Format : MPEG-4
    Format profile : Base Media / Version 2
    Codec ID : mp42
    File size : 1.30 GiB
    Duration : 1h 36mn
    Overall bit rate mode : Variable
    Overall bit rate : 1 937 Kbps
    Movie name : А если это любовь?
    Performer : Юлий Райзман
    Director : Юлий Райзман
    Actor : Жанна Прохоренко / Игорь Пушкарев / Александра Назарова / Нина Шорина / Надежда Федосова / Софья Павлова / Андрей Миронов / Евгений Жариков / Виктор Хохряков / Мария Дурасова
    Screenplay by : Иосиф Ольшанский / Юлий Райзман / Нина Руднева
    Production studio : Мосфильм
    Genre : драма, мелодрама
    ContentType : Short Film
    Description : Десятиклассники Ксеня и Борис однажды осознают, что их связывает нечто большее, чем просто дружба.
    Recorded date : 1962-03-19
    Encoded date : UTC 1904-01-01 00:00:00
    Tagged date : UTC 2015-06-17 16:52:03
    Cover : Yes
    Rating : None
    LongDescription : Десятиклассники Ксеня и Борис однажды осознают, что их связывает нечто большее, чем просто дружба. Но первое, робкое чувство, не оставшееся тайной для окружающих, сталкивается с насмешками одноклассников, ханжеством и грубым вмешательством взрослых — в первую очередь педагогов. Сумеют ли юные герои сохранить свою любовь?
    AppleStoreCatalogID : 43394
    Vendor : Apple:vendor_id:1962-43394
    Video #1
    ID : 1
    Format : AVC
    Format/Info : Advanced Video Codec
    Format profile : Baseline@L3
    Format settings, CABAC : No
    Format settings, ReFrames : 3 frames
    Codec ID : avc1
    Codec ID/Info : Advanced Video Coding
    Duration : 1h 36mn
    Bit rate : 1 800 Kbps
    Width : 640 pixels
    Height : 444 pixels
    Display aspect ratio : 5:3
    Frame rate mode : Constant
    Frame rate : 25.000 fps
    Color space : YUV
    Chroma subsampling : 4:2:0
    Bit depth : 8 bits
    Scan type : Progressive
    Bits/(Pixel*Frame) : 0.253
    Stream size : 1.21 GiB (93%)
    Writing library : x264 core 142 r2479 dd79a61
    Encoding settings : cabac=0 / ref=3 / deblock=1:-1:-1 / analyse=0x1:0x111 / me=umh / subme=9 / psy=1 / psy_rd=1.00:0.00 / mixed_ref=1 / me_range=32 / chroma_me=1 / trellis=2 / 8x8dct=0 / cqm=0 / deadzone=21,11 / fast_pskip=1 / chroma_qp_offset=-2 / threads=6 / lookahead_threads=1 / sliced_threads=0 / nr=0 / decimate=1 / interlaced=0 / bluray_compat=0 / constrained_intra=0 / bframes=0 / weightp=0 / keyint=250 / keyint_min=25 / scenecut=40 / intra_refresh=0 / rc_lookahead=40 / rc=2pass / mbtree=1 / bitrate=1800 / ratetol=1.0 / qcomp=0.60 / qpmin=0 / qpmax=69 / qpstep=4 / cplxblur=20.0 / qblur=0.5 / vbv_maxrate=5000 / vbv_bufsize=5000 / nal_hrd=none / filler=0 / ip_ratio=1.40 / aq=1:1.00
    Language : Russian
    Encoded date : UTC 1904-01-01 00:00:00
    Tagged date : UTC 1904-01-01 00:00:00
    Color range : Limited
    Color primaries : BT.601 PAL
    Transfer characteristics : BT.709
    Matrix coefficients : BT.601
    Video #2
    ID : 4
    Format : JPEG
    Codec ID : jpeg
    Duration : 1h 36mn
    Bit rate mode : Variable
    Bit rate : 1 261 bps
    Width : 640 pixels
    Height : 387 pixels
    Display aspect ratio : 5:3
    Frame rate mode : Variable
    Frame rate : 0.003 fps
    Minimum frame rate : 0.002 fps
    Maximum frame rate : 0.005 fps
    Color space : YUV
    Chroma subsampling : 4:2:0
    Bit depth : 8 bits
    Compression mode : Lossy
    Bits/(Pixel*Frame) : 1.697
    Stream size : 770 KiB (0%)
    Language : Russian
    Encoded date : UTC 2015-06-04 17:21:20
    Tagged date : UTC 2015-06-04 17:21:22
    Audio
    ID : 2
    Format : AAC
    Format/Info : Advanced Audio Codec
    Format profile : LC
    Codec ID : 40
    Duration : 1h 36mn
    Bit rate mode : Variable
    Bit rate : 132 Kbps
    Maximum bit rate : 143 Kbps
    Channel(s) : 2 channels
    Channel(s)_Original : 1 channel
    Channel positions : Front: C
    Sampling rate : 48.0 KHz
    Compression mode : Lossy
    Stream size : 90.3 MiB (7%)
    Title : Mono
    Language : Russian
    Encoded date : UTC 1904-01-01 00:00:00
    Tagged date : UTC 1904-01-01 00:00:00
    Menu
    ID : 3
    Codec ID : text
    Duration : 1h 36mn
    Language : Russian
    Encoded date : UTC 1904-01-01 00:00:00
    Tagged date : UTC 1904-01-01 00:00:00
    00:00:00.000 : Chapter 1
    00:04:42.720 : Chapter 2
    00:10:52.920 : Chapter 3
    00:14:09.720 : Chapter 4
    00:19:40.320 : Chapter 5
    00:28:59.520 : Chapter 6
    00:38:05.520 : Chapter 7
    00:47:20.520 : Chapter 8
    00:50:39.720 : Chapter 9
    00:58:08.520 : Chapter 10
    01:04:01.320 : Chapter 11
    01:08:39.120 : Chapter 12
    01:13:54.720 : Chapter 13
    01:19:07.320 : Chapter 14
    01:26:57.120 : Chapter 15
    Bit rate mode : VBR

    Скриншоты

    Скачать .torrent

    Скачать торрент-файл бесплатно и на максимальной скорости!

    Как скачивать? · Что такое торрент? · Рейтинг и ограничения

    !ВНИМАНИЕ!
    Сайт не распространяет и не хранит электронные версии произведений, а занимается лишь лишь предоставлением доступа к создаваемому пользователями каталогу ссылок на торрент-файлы, которые содержат только списки хеш-сумм, убедительная просьба с жалобами обращаться напрямую к пользователю. Файлы для обмена на трекере предоставлены пользователями сайта, и администрация не несёт ответственности за их содержание. Просьба не заливать файлы, защищенные авторскими правами, а также файлы нелегального содержания!


    _________________
    [Профиль] [ЛС]
    Показать сообщения:    
    Ответить на тему

    Текущее время: Сегодня, в 17:31

    Часовой пояс: GMT + 2



    Вы не можете начинать темы
    Вы не можете отвечать на сообщения
    Вы не можете редактировать свои сообщения
    Вы не можете удалять свои сообщения
    Вы не можете голосовать в опросах
    Вы не можете прикреплять файлы к сообщениям
    Вы не можете скачивать файлы