BitTorrentTracker PerecTracker.org
BitTorrentTracker PerecTracker.org
    
Регистрация  ·  Вход
 
 · 
Забыли пароль?

  • [iPad] Французский транзит / La French (Седрик Жименес / Cédric Jimenez ) [2014, Франция, Бельгия, Боевик, триллер, криминал, BDRip, SD (576p)] DUB + MVO + Original + sub (fra)

    Ответить на тему
     
    Автор Сообщение

    rechyn

    Создавать темы 02-Сен-2015 12:53

           

    [Цитировать]

    Французский транзит / La French
    «Marseille 1975. To stop a dangerous drug lord, you need a dangerous cop»
    7.153 / 10 7.10 / 10
    -Год выпуска: 2014
    Страна: Франция, Бельгия
    Жанр: Боевик, триллер, криминал
    Продолжительность: 02:15:36
    Перевод: Дублированный, Многоголосый закадровый (IPTV snx.BLUEBIRD)
    Оригинальная аудиодорожка: Есть
    Cубтитры: Французские
    Режиссёр: Седрик Жименес
    Сценарий: Одри Диван, Седрик Жименес
    Продюсер: Эксел Декис, Ванесса Джиан, Ален Голдман
    Оператор: Лорен Танги
    Композитор: Гийом Пассел
    Художник: Патрик Шмитт, Вилли Марджери, Паскаль Вийан
    Монтаж: Софи Рейне
    В ролях: Жан Дюжарден, Жиль Леллуш, Селин Саллетт, Мелани Дотей, Бенуа Мажимель, Гийом Гуи, Бруно Тодескини, Федор Аткин, Мусса Мааскри, Пьер Лопез
    Бюджет: $26 000 000
    Сборы в России: $72 705
    Мировая премьера: 10 сентября 2014
    Премьера (РФ): 28 мая 2015, «Top Film Distribution»
    Описание: Реальная история преступного синдиката «Французский связной», свирепствующего в 70-х годах. Подпольная организация была особенно известна международным трафиком героина. Марсель. 1975 год. Молодой Пьер Мишель вместе с женой и детьми переезжает из Меца и назначается судьёй по особо тяжким преступлениям. Он решает разобраться с мафиозной сетью, два десятилетия снабжающей улицы США и всего мира героином под руководством знаковой фигуры криминальной сферы и неприкосновенного крёстного отца безжалостного Гаэтана Зампы. Но он быстро понимает,что для получения результатов ему придётся поменять свои методы.-Качество исходника: Blu-Ray
    Качество: BDRip
    Тип: SD (576p)
    Контейнер: M4V
    Видео: H.264, 1024x432, 2.40:1, 2 200 Kbps, 23.976 fps
    Аудио 1: Русский/Дублированный (BlueBird), AAC / 2.0 / 157 Kbps / 48.0 KHz
    Аудио 2: Французский/Оригинальная дорожка , AAC / 2.0 / 157 Kbps / 48.0 KHz
    Аудио 3: Украинский/Многоголосый закадровый (BlueBird), AAC / 2.0 / 156 Kbps / 48.0 KHz
    Субтитры: Французские полные
    -

    iTunes Meta Tags

    Sort Name: French
    XID: Apple:vendor_id:2014-765712
    contentID: 950663147
    Copyright: © 2014 Legende Films - Gaumont - France 2 Cinema - Scope Pictures - RTBF (Télévision Belge)
    Screenwriters: Одри Диван, Седрик Жименес
    Producers: Эксел Декис, Ванесса Джиан, Ален Голдман
    Director: Седрик Жименес
    Cast: Жан Дюжарден, Жиль Леллуш, Селин Саллетт, Мелани Дотей, Бенуа Мажимель, Гийом Гуи, Бруно Тодескини, Федор Аткин, Мусса Мааскри, Пьер Лопез
    Studio: Gaumont
    Rating: 66
    Long Description: Французский полицейский судья на протяжении многих лет пытается разобраться с одним из самых крупных наркосиндикатов.
    Description: Французский полицейский судья на протяжении многих лет пытается разобраться с одним из самых крупных наркосиндикатов.
    Release Date: 2014-09-10T08:00:00Z
    Genre: Thriller
    Artist: Cédric Jimenez
    Name: La French

    MediaInfo

    General
    Complete name                            : /Users/imac/HandBrake/La.French.(SD).(pk).m4v
    Format                                   : MPEG-4
    Codec ID                                 : M4V
    File size                                : 2.53 GiB
    Duration                                 : 2h 15mn
    Overall bit rate mode                    : Variable
    Overall bit rate                         : 2 679 Kbps
    Movie name                               : La French
    Performer                                : Cédric Jimenez
    Genre                                    : Thriller
    Recorded date                            : UTC 2014-09-10 08:00:00
    Encoded date                             : UTC 2015-06-21 11:28:59
    Tagged date                              : UTC 2015-06-21 11:30:14
    Copyright                                : © 2014 Legende Films - Gaumont - France 2 Cinema - Scope Pictures - RTBF (Télévision Belge)
    Cover                                    : Yes
    sonm                                     : French
    desc                                     : Французский полицейский судья на протяжении многих лет пытается разобраться с одним из самых крупных наркосиндикатов.
    ldes                                     : Французский полицейский судья на протяжении многих лет пытается разобраться с одним из самых крупных наркосиндикатов.
    stik                                     : 9
    rtng                                     : 0
    cnID                                     : 950663147
    xid                                      : Apple:vendor_id:2014-765712
    iTunEXTC                                 : fr-movie|Tout public|000|
    iTunMOVI                                 : <?xml version=\"1.0\" encoding=\"UTF-8\"?> / <!DOCTYPE plist PUBLIC \"-//Apple//DTD PLIST 1.0//EN\" \"http://anonym.to/?http://www.apple.com/DTDs/PropertyList-1.0.dtd\"> / <plist version=\"1.0\"> / <dict> /  <key>cast</key> /  <array> /   <dict> /    <key>name</key> /    <string>Жан Дюжарден</string> /   </dict> /   <dict> /    <key>name</key> /    <string>Жиль Леллуш</string> /   </dict> /   <dict> /    <key>name</key> /    <string>Селин Саллетт</string> /   </dict> /   <dict> /    <key>name</key> /    <string>Мелани Дотей</string> /   </dict> /   <dict> /    <key>name</key> /    <string>Бенуа Мажимель</string> /   </dict> /   <dict> /    <key>name</key> /    <string>Гийом Гуи</string> /   </dict> /   <dict> /    <key>name</key> /    <string>Бруно Тодескини</string> /   </dict> /   <dict> /    <key>name</key> /    <string>Федор Аткин</string> /   </dict> /   <dict> /    <key>name</key> /    <string>Мусса Мааскри</string> /   </dict> /   <dict> /    <key>name</key> /    <string>Пьер Лопез</string> /   </dict> /  </array> /  <key>directors</key> /  <array> /   <dict> /    <key>name</key> /    <string>Седрик Жименес</string> /   </dict> /  </array> /  <key>producers</key> /  <array> /   <dict> /    <key>name</key> /    <string>Эксел Декис</string> /   </dict> /   <dict> /    <key>name</key> /    <string>Ванесса Джиан</string> /   </dict> /   <dict> /    <key>name</key> /    <string>Ален Голдман</string> /   </dict> /  </array> /  <key>screenwriters</key> /  <array> /   <dict> /    <key>name</key> /    <string>Одри Диван</string> /   </dict> /   <dict> /    <key>name</key> /    <string>Седрик Жименес</string> /   </dict> /  </array> /  <key>studio</key> /  <string>Gaumont</string> / </dict> / </plist>
    Video #1
    ID                                       : 1
    Format                                   : AVC
    Format/Info                              : Advanced Video Codec
    Format profile                           : High@L3.1
    Format settings, CABAC                   : Yes
    Format settings, ReFrames                : 9 frames
    Codec ID                                 : avc1
    Codec ID/Info                            : Advanced Video Coding
    Duration                                 : 2h 15mn
    Bit rate mode                            : Variable
    Bit rate                                 : 2 200 Kbps
    Width                                    : 1 024 pixels
    Height                                   : 432 pixels
    Display aspect ratio                     : 2.40:1
    Frame rate mode                          : Variable
    Frame rate                               : 23.976 fps
    Minimum frame rate                       : 23.974 fps
    Maximum frame rate                       : 23.981 fps
    Color space                              : YUV
    Chroma subsampling                       : 4:2:0
    Bit depth                                : 8 bits
    Scan type                                : Progressive
    Bits/(Pixel*Frame)                       : 0.207
    Stream size                              : 2.08 GiB (82%)
    Writing library                          : x264 core 142 r2479 dd79a61
    Encoding settings                        : cabac=1 / ref=9 / deblock=1:0:0 / analyse=0x3:0x113 / me=umh / subme=9 / psy=1 / psy_rd=1.00:0.00 / mixed_ref=1 / me_range=32 / chroma_me=1 / trellis=1 / 8x8dct=1 / cqm=0 / deadzone=21,11 / fast_pskip=1 / chroma_qp_offset=-2 / threads=36 / lookahead_threads=3 / sliced_threads=0 / nr=0 / decimate=1 / interlaced=0 / bluray_compat=0 / constrained_intra=0 / bframes=6 / b_pyramid=2 / b_adapt=2 / b_bias=0 / direct=1 / weightb=1 / open_gop=0 / weightp=2 / keyint=240 / keyint_min=24 / scenecut=40 / intra_refresh=0 / rc_lookahead=40 / rc=2pass / mbtree=1 / bitrate=2200 / ratetol=1.0 / qcomp=0.60 / qpmin=0 / qpmax=69 / qpstep=4 / cplxblur=20.0 / qblur=0.5 / ip_ratio=1.40 / aq=1:1.00
    Encoded date                             : UTC 2015-06-21 11:28:59
    Tagged date                              : UTC 2015-06-21 11:29:06
    Color primaries                          : BT.709-5, BT.1361, IEC 61966-2-4, SMPTE RP177
    Transfer characteristics                 : BT.709-5, BT.1361
    Matrix coefficients                      : BT.709-5, BT.1361, IEC 61966-2-4 709, SMPTE RP177
    Video #2
    ID                                       : 7
    Format                                   : JPEG
    Codec ID                                 : jpeg
    Duration                                 : 2h 15mn
    Bit rate mode                            : Variable
    Bit rate                                 : 281 bps
    Width                                    : 640 pixels
    Height                                   : 270 pixels
    Display aspect ratio                     : 2.40:1
    Frame rate mode                          : Constant
    Frame rate                               : 0.001 fps
    Color space                              : YUV
    Chroma subsampling                       : 4:2:0
    Bit depth                                : 8 bits
    Compression mode                         : Lossy
    Bits/(Pixel*Frame)                       : 1.626
    Stream size                              : 412 KiB (0%)
    Encoded date                             : UTC 2015-06-21 11:29:45
    Tagged date                              : UTC 2015-06-21 11:29:45
    Audio #1
    ID                                       : 2
    Format                                   : AAC
    Format/Info                              : Advanced Audio Codec
    Format profile                           : LC
    Codec ID                                 : 40
    Duration                                 : 2h 15mn
    Bit rate mode                            : Variable
    Bit rate                                 : 157 Kbps
    Maximum bit rate                         : 228 Kbps
    Channel(s)                               : 2 channels
    Channel positions                        : Front: L R
    Sampling rate                            : 48.0 KHz
    Compression mode                         : Lossy
    Stream size                              : 152 MiB (6%)
    Language                                 : Russian
    Encoded date                             : UTC 2015-06-21 11:29:00
    Tagged date                              : UTC 2015-06-21 11:29:42
    Audio #2
    ID                                       : 3
    Format                                   : AAC
    Format/Info                              : Advanced Audio Codec
    Format profile                           : LC
    Codec ID                                 : 40
    Duration                                 : 2h 15mn
    Bit rate mode                            : Variable
    Bit rate                                 : 157 Kbps
    Maximum bit rate                         : 273 Kbps
    Channel(s)                               : 2 channels
    Channel positions                        : Front: L R
    Sampling rate                            : 48.0 KHz
    Compression mode                         : Lossy
    Stream size                              : 152 MiB (6%)
    Language                                 : French
    Encoded date                             : UTC 2015-06-21 11:29:00
    Tagged date                              : UTC 2015-06-21 11:29:42
    Audio #3
    ID                                       : 4
    Format                                   : AAC
    Format/Info                              : Advanced Audio Codec
    Format profile                           : LC
    Codec ID                                 : 40
    Duration                                 : 2h 15mn
    Bit rate mode                            : Variable
    Bit rate                                 : 156 Kbps
    Maximum bit rate                         : 263 Kbps
    Channel(s)                               : 2 channels
    Channel positions                        : Front: L R
    Sampling rate                            : 48.0 KHz
    Compression mode                         : Lossy
    Stream size                              : 151 MiB (6%)
    Language                                 : Ukrainian
    Encoded date                             : UTC 2015-06-21 11:29:00
    Tagged date                              : UTC 2015-06-21 11:29:42
    Text #1
    ID                                       : 5
    Format                                   : Timed text
    Muxing mode                              : sbtl
    Codec ID                                 : tx3g
    Duration                                 : 2h 9mn
    Bit rate mode                            : Variable
    Bit rate                                 : 58 bps
    Stream size                              : 55.3 KiB (0%)
    Language                                 : French
    Encoded date                             : UTC 2015-06-21 11:29:00
    Tagged date                              : UTC 2015-06-21 11:29:40
    Text #2
    ID                                       : 6
    Format                                   : Apple text
    Codec ID                                 : text
    Duration                                 : 2h 15mn
    Bit rate mode                            : Variable
    Bit rate                                 : 0 bps
    Stream size                              : 279 Bytes (0%)
    Language                                 : French
    Encoded date                             : UTC 2015-06-21 11:29:42
    Tagged date                              : UTC 2015-06-21 11:29:42
    Menu
    00:00:00.000                             : Chapter 1
    00:11:01.578                             : Chapter 2
    00:21:07.266                             : Chapter 3
    00:32:10.512                             : Chapter 4
    00:43:32.527                             : Chapter 5
    00:56:18.959                             : Chapter 6
    01:06:47.128                             : Chapter 7
    01:15:40.119                             : Chapter 8
    01:28:48.823                             : Chapter 9
    01:40:26.604                             : Chapter 10
    01:55:01.269                             : Chapter 11
    02:03:22.729                             : Chapter 12

    x264 лог

    x264 [info]: frame I:1634  Avg QP:15.79  size: 71513
    x264 [info]: frame P:45098 Avg QP:18.93  size: 23045
    x264 [info]: frame B:147923 Avg QP:21.18  size:  7273
    x264 [info]: consecutive B-frames:  2.9%  4.3%  8.9% 19.5% 20.0% 34.6%  9.9%
    x264 [info]: mb I  I16..4: 13.3% 63.1% 23.6%
    x264 [info]: mb P  I16..4:  1.6% 11.0%  2.8%  P16..4: 35.9% 23.9% 14.2%  0.0%  0.0%    skip:10.6%
    x264 [info]: mb B  I16..4:  0.1%  1.3%  0.3%  B16..8: 44.0% 10.4%  3.1%  direct: 4.0%  skip:36.8%  L0:45.0% L1:47.4% BI: 7.7%
    x264 [info]: 8x8 transform intra:70.9% inter:67.4%
    x264 [info]: coded y,uvDC,uvAC intra: 87.5% 71.6% 39.2% inter: 27.8% 17.2% 1.3%
    x264 [info]: i16 v,h,dc,p: 33% 30%  6% 31%
    x264 [info]: i8 v,h,dc,ddl,ddr,vr,hd,vl,hu:  9%  7%  4% 11% 16% 15% 15% 12% 11%
    x264 [info]: i4 v,h,dc,ddl,ddr,vr,hd,vl,hu:  8% 10%  2% 10% 16% 15% 15% 12% 13%
    x264 [info]: i8c dc,h,v,p: 35% 28% 21% 16%
    x264 [info]: Weighted P-Frames: Y:2.6% UV:1.5%
    x264 [info]: ref P L0: 48.0% 11.4% 16.8%  6.4%  5.4%  3.8%  3.6%  2.0%  2.1%  0.3%  0.0%
    x264 [info]: ref B L0: 73.4% 12.0%  6.0%  3.1%  2.2%  1.9%  1.0%  0.4%
    x264 [info]: ref B L1: 92.3%  7.7%
    x264 [info]: kb/s:2199.33

    Скриншоты

    -

    Релиз подготовлен для просмотра на Apple TV, iPad, iPhone, iPod Touch.
    Для просмотра данного релиза на компьютере с ОС Windows рекомендуется использовать VLC media player
    Скачать .torrent

    Скачать торрент-файл бесплатно и на максимальной скорости!

    Как скачивать? · Что такое торрент? · Рейтинг и ограничения

    !ВНИМАНИЕ!
    Сайт не распространяет и не хранит электронные версии произведений, а занимается лишь лишь предоставлением доступа к создаваемому пользователями каталогу ссылок на торрент-файлы, которые содержат только списки хеш-сумм, убедительная просьба с жалобами обращаться напрямую к пользователю. Файлы для обмена на трекере предоставлены пользователями сайта, и администрация не несёт ответственности за их содержание. Просьба не заливать файлы, защищенные авторскими правами, а также файлы нелегального содержания!


    _________________
    [Профиль] [ЛС]
    Показать сообщения:    
    Ответить на тему

    Текущее время: Сегодня, в 12:35

    Часовой пояс: GMT + 2



    Вы не можете начинать темы
    Вы не можете отвечать на сообщения
    Вы не можете редактировать свои сообщения
    Вы не можете удалять свои сообщения
    Вы не можете голосовать в опросах
    Вы не можете прикреплять файлы к сообщениям
    Вы не можете скачивать файлы