BitTorrentTracker PerecTracker.org
BitTorrentTracker PerecTracker.org
    
Регистрация  ·  Вход
 
 · 
Забыли пароль?

  • Демоны Да Винчи / Da Vinci's Demons / Сезон: 1 / Серии: 1-8 из 8 (Майкл Дж. Бассетт, Дэвид С. Гойер, Джэми Пэйн) [2013, Драма, приключения, HDTVRip 720p] DVO (Alternative Production)

    Ответить на тему
     
    Автор Сообщение

    rechyn

    Создавать темы 09-Июн-2013 09:40

           

    [Цитировать]

    -Демоны Да Винчи / Da Vinci's Demonsслоган «History Is a Lie.»-Год выпуска: 2013
    Страна: США
    Жанр: Драма, приключения
    Продолжительность: 8 х ~ 00:58:51
    Перевод: Любительский (многоголосый закадровый) [Alternative Production]
    Русские субтитры: нет
    Режиссер: Майкл Дж. Бассетт, Дэвид С. Гойер, Джэми Пэйн-Сценарий: Дэвид С. Гойер, Скотт М. Гимпл, Брайан Нельсон
    Продюсер: Кортни Б. Конте, Джули Гарднер, Дэвид С. Гойер-Премьера (РФ): 26 апреля 2013
    -В ролях: Том Райли, Лаура Хэддок, Йен Пири, Эрос Влахос, Грегг Чиллин, Лара Пулвер, Том Бейтман, Гера Хилмарсдоттир, Эллиот Леви, Росс О’Хеннесси-Описание: В мире, где мысль и вера находятся под контролем, один человек борется за то, чтобы сделать знания доступными для всех. Не рассказанная история трагичной жизни Леонардо Да Винчи раскрывает портрет молодого человека, которого мучает дар гения. Он — еретик, жаждущий раскрыть ложь религии. Бунтарь, стремящийся низвергнуть элитарное общество. Незаконнорожденный сын, требующий от своего отца признания его прав. Он оказывается посреди разразившегося урагана страстей, который спал веками. Внутри конфликта между правдой и ложью, религией и интеллектом, прошлым и будущим. Его стремления используются против него противоборствующими силами того времени, вовлекая его в соблазнительную игру, в которой те, кто презирает его ум, нуждаются в нём больше всего. Леонардо должен вступить в конфронтацию с теми, кто использует историю, чтобы скрыть истину. Вооружённый лишь собственным гением Да Винчи в одиночку противостоит тьме как внутри, так и снаружи. Перед лицом неопределённости будущего его поход за знаниями едва не становится для него погибелью, когда он переходит за грань своего здравомыслия. Да Винчи, словно в омут с головой, уходит в собственные гениальные идеи, воплотив которые, становится необоримой силой, вытаскивающей из темноты и поворачивающей к свету целую эпоху. Его история становится зеркалом для нашего мира, зовущее всех нас на бой за Свободное Будущее.-Качество: HDTVRip 720p
    Формат: MKV
    Видео кодек: AVC
    Аудио кодек: AC3
    Видео: AVC, 1278x720, 23.976 fps, 3382 kbps, 0.153 bit/pixel
    Аудио: Русский (48,0 КГц, AC3, 2 ch, 256 Кбит/с)--

    Список серий

    01. «The Hanged Man» «Повешенный»
    02. «The Serpent» «Змей»
    03. «The Prisoner» «Узник»
    04. «The Magician» «Чародей»
    05. «The Tower» «Башня»
    06. «The Devil» «Дьявол»
    07. «The Hierophant» «Иерофант»
    08. «The Lovers» «Любовники»

    MediaInfo

    Общее
    Уникальный идентификатор                 : 251758988495950272045242419611821556204 (0xBD670478FFC2CB2892A9271E45CA41EC)
    Полное имя                               : D:\Демоны Да Винчи [1 сезон][Alternative Production]\Da Vinchi's Demons s01e01 720 [Alternative Production].mkv
    Формат                                   : Matroska
    Версия формата                           : Version 2
    Размер файла                             : 1,53 Гбайт
    Продолжительность                        : 58 м.
    Общий поток                              : 3712 Кбит/сек
    Дата кодирования                         : UTC 2013-04-13 19:44:04
    Программа кодирования                    : mkvmerge v5.5.0 ('Healer') built on Apr  6 2012 21:43:24
    Библиотека кодирования                   : libebml v1.2.3 + libmatroska v1.3.0
    Видео
    Идентификатор                            : 1
    Формат                                   : AVC
    Формат/Информация                        : Advanced Video Codec
    Профиль формата                          : High@L4.1
    Параметр CABAC формата                   : Да
    Параметр ReFrames формата                : 5 кадров
    Идентификатор кодека                     : V_MPEG4/ISO/AVC
    Продолжительность                        : 58 м.
    Битрейт                                  : 3382 Кбит/сек
    Ширина                                   : 1278 пикселей
    Высота                                   : 720 пикселей
    Соотношение сторон                       : 16:9
    Режим частоты кадров                     : Постоянный
    Частота кадров                           : 23,976 кадра/сек
    Цветовое пространство                    : YUV
    Субдискретизация насыщенности            : 4:2:0
    Битовая глубина                          : 8 бит
    Тип развёртки                            : Прогрессивная
    Бит/(Пиксели*Кадры)                      : 0.153
    Размер потока                            : 1,39 Гбайт (91%)
    Библиотека кодирования                   : x264 core 130 r2273 b3065e6
    Настройки программы                      : cabac=1 / ref=5 / deblock=1:0:0 / analyse=0x3:0x113 / me=umh / subme=8 / psy=1 / psy_rd=1.00:0.00 / mixed_ref=1 / me_range=16 / chroma_me=1 / trellis=1 / 8x8dct=1 / cqm=0 / deadzone=21,11 / fast_pskip=1 / chroma_qp_offset=-2 / threads=6 / lookahead_threads=1 / sliced_threads=0 / nr=0 / decimate=1 / interlaced=0 / bluray_compat=0 / constrained_intra=0 / bframes=3 / b_pyramid=2 / b_adapt=2 / b_bias=0 / direct=3 / weightb=1 / open_gop=0 / weightp=2 / keyint=250 / keyint_min=23 / scenecut=40 / intra_refresh=0 / rc_lookahead=50 / rc=crf / mbtree=1 / crf=18.0 / qcomp=0.60 / qpmin=0 / qpmax=69 / qpstep=4 / ip_ratio=1.40 / aq=1:1.00
    Язык                                     : English
    Default                                  : Да
    Forced                                   : Нет
    Коэффициенты матрицы                     : BT.709
    Аудио
    Идентификатор                            : 2
    Формат                                   : AC-3
    Формат/Информация                        : Audio Coding 3
    Расширение режима                        : CM (complete main)
    Параметр Endianness формата              : Big
    Идентификатор кодека                     : A_AC3
    Продолжительность                        : 58 м.
    Вид битрейта                             : Постоянный
    Битрейт                                  : 256 Кбит/сек
    Каналы                                   : 2 канала
    Расположение каналов                     : Front: L R
    Частота                                  : 48,0 КГц
    Битовая глубина                          : 16 бит
    Метод сжатия                             : С потерями
    Размер потока                            : 108 Мбайт (7%)
    Default                                  : Да
    Forced                                   : Нет

    Скриншоты

    -2 сезон - весной(летом) 2014
    Скачать .torrent

    Скачать торрент-файл бесплатно и на максимальной скорости!

    Как скачивать? · Что такое торрент? · Рейтинг и ограничения

    !ВНИМАНИЕ!
    Сайт не распространяет и не хранит электронные версии произведений, а занимается лишь лишь предоставлением доступа к создаваемому пользователями каталогу ссылок на торрент-файлы, которые содержат только списки хеш-сумм, убедительная просьба с жалобами обращаться напрямую к пользователю. Файлы для обмена на трекере предоставлены пользователями сайта, и администрация не несёт ответственности за их содержание. Просьба не заливать файлы, защищенные авторскими правами, а также файлы нелегального содержания!


    _________________
    [Профиль] [ЛС]
    Показать сообщения:    
    Ответить на тему

    Текущее время: Сегодня, в 08:05

    Часовой пояс: GMT + 2



    Вы не можете начинать темы
    Вы не можете отвечать на сообщения
    Вы не можете редактировать свои сообщения
    Вы не можете удалять свои сообщения
    Вы не можете голосовать в опросах
    Вы не можете прикреплять файлы к сообщениям
    Вы не можете скачивать файлы