BitTorrentTracker PerecTracker.org
BitTorrentTracker PerecTracker.org
    
Регистрация  ·  Вход
 
 · 
Забыли пароль?

  • [iPhone] Спасибо, папа / Thank you, dad (Грач Кешишян / Hrach Keshishyan) [2014, Армения, Комедия, мелодрама, WEB-DLRip, 480x] MVO на Английскую речь

    Ответить на тему
     
    Автор Сообщение

    rechyn

    Создавать темы 02-Сен-2015 12:53

           

    [Цитировать]

    Спасибо, папа / Thank you, dad
    Год выпуска: 2014
    Страна: Армения
    Студия: Team Productions
    Жанр: Комедия, мелодрама
    Продолжительность: 01:35:17


    Перевод: Профессиональный (многоголосый закадровый) на Английскую речь
    Оригинальная аудиодорожка: нет
    Cубтитры: нет
    Режиссёр: Грач Кешишян / Hrach Keshishyan
    Сценарий: Микаел Погосян, Виген Степанян
    Продюссер: Микаел Погосян, Мушег Адамян, Анна Харутюнян
    В ролях: Криста Донарго, Луиза Гамбарян, Майрануш Григорян, Дэвид Акопян, Левон Арутюнян, Джордж Ховакимян, Джения Мкртумян, Левон Мурадян, Еро Мурян, Нарек Нерсисян
    Описание:
    В свой день рождения молодая армянка - Вирджи, живущая в Нью-Йорке, получает неожиданный подарок - наследство в 50 миллионов долларов. Только по завещанию отца, которого она не видела больше 10 лет, ей надо выполнить одно условие: найти армянина с редчайшим именем Баргевос и выйти за него замуж. На все это ей дается только месяц. Чтобы встретить своё «счастье», Вирджи через несколько дней вылетает в Армению, где, как ей удалось выяснить, живёт один-единственный Баргевос.
    Качество исходника: WEB-DL 480p
    Качество: WEB-DLRip
    Разрешение: 480x
    Формат: M4V
    Видео: MPEG-4 AVC/H.264, 640x426@852x426, 4:2:0, 1 860 Kbps, 25.000 fps
    Аудио: , AAC, 2 ch, 48.0 KHz, 156 Kbps

    MediaInfo

    D:\Скаченное\Thank you, dad 2014 (SD).m4v General Complete name : D:\Скаченное\Thank you, dad 2014 (SD).m4v Format : MPEG-4 Codec ID : M4V File size : 1.35 GiB Duration : 1h 35mn Overall bit rate mode : Variable Overall bit rate : 2 020 Kbps Movie name : Спасибо, папа Performer : Hrach Keshishyan Director : Грач Кешишян Actor : Криста Донарго / Луиза Гамбарян / Майрануш Григорян / Дэвид Акопян / Левон Арутюнян / Джордж Ховакимян / Джения Мкртумян / Левон Мурадян / Еро Мурян / Нарек Нерсисян / Сергей Чихачев Screenplay by : Микаел Погосян / Виген Степанян Producer : Микаел Погосян / Мушег Адамян / Анна Харутюнян Genre : Comedy Description : В свой день рождения Вирджи, живущая в Нью-Йорке, получает неожиданный подарок - наследство в 50 миллионов долларов. Только по завещанию отца, которого она не видела больше 10 лет, ей надо выполнить одно условие: найти армянина с редчайшим именем Бар Recorded date : UTC 2014-05-31 08:00:00 Encoded date : UTC 2015-02-13 18:18:45 Tagged date : UTC 2015-02-13 18:54:18 Copyright : Марс Медиа Энтертейнмент Cover : Yes Rating : None Title/Sort : Thank you, dad LongDescription : В свой день рождения Вирджи, живущая в Нью-Йорке, получает неожиданный подарок - наследство в 50 миллионов долларов. Только по завещанию отца, которого она не видела больше 10 лет, ей надо выполнить одно условие: найти армянина с редчайшим именем Баргевос и выйти за него замуж. На все это ей дается только месяц. Чтобы встретить свое "счастье", Вирджи через несколько дней вылетает в Армению, где, как ей удалось выяснить, живет один-единственный Баргевос. AppleStoreCatalogID : 839506 Vendor : Apple:vendor_id:2014-839506 ContentRating : mpaa|PG-13|300| Video #1 ID : 1 Format : AVC Format/Info : Advanced Video Codec Format profile : Baseline@L3.0 Format settings, CABAC : No Format settings, ReFrames : 2 frames Codec ID : avc1 Codec ID/Info : Advanced Video Coding Duration : 1h 35mn Bit rate : 1 860 Kbps Maximum bit rate : 7 156 Kbps Width : 640 pixels Height : 426 pixels Display aspect ratio : 2.000 Frame rate mode : Constant Frame rate : 25.000 fps Color space : YUV Chroma subsampling : 4:2:0 Bit depth : 8 bits Scan type : Progressive Bits/(Pixel*Frame) : 0.273 Stream size : 1.24 GiB (92%) Title : Thank you_ dad _2014_ Language : Russian Encoded date : UTC 2015-02-13 18:18:45 Tagged date : UTC 2015-02-13 18:18:55 Matrix coefficients : BT.709 Color range : Full Video #4 ID : 4 Format : JPEG Codec ID : jpeg Duration : 1h 35mn Bit rate mode : Variable Bit rate : 1 293 bps Width : 640 pixels Height : 320 pixels Display aspect ratio : 2.000 Frame rate mode : Variable Frame rate : 0.003 fps Minimum frame rate : 0.002 fps Maximum frame rate : 0.005 fps Color space : YUV Chroma subsampling : 4:2:0 Bit depth : 8 bits Compression mode : Lossy Bits/(Pixel*Frame) : 2.104 Stream size : 999 KiB (0%) Language : Russian Encoded date : UTC 2015-02-13 18:54:03 Tagged date : UTC 2015-02-13 18:54:04 Audio #2 ID : 2 Format : AAC Format/Info : Advanced Audio Codec Format profile : LC Codec ID : 40 Duration : 1h 35mn Bit rate mode : Variable Bit rate : 156 Kbps Maximum bit rate : 242 Kbps Channel(s) : 2 channels Channel positions : Front: L R Sampling rate : 48.0 KHz Compression mode : Lossy Stream size : 106 MiB (8%) Language : Russian Encoded date : UTC 2015-02-13 18:18:52 Tagged date : UTC 2015-02-13 18:18:55

    x264 лог

    x264 [info]: frame I:1664 Avg QP:18.06 size: 32223x264 [info]: frame P:141361 Avg QP:20.80 size: 9032x264 [info]: mb I I16..4: 37.9% 0.0% 62.1%x264 [info]: mb P I16..4: 0.9% 0.0% 1.3% P16..4: 52.9% 17.3% 9.7% 2.0% 0.9% skip:15.1%x264 [info]: coded y,uvDC,uvAC intra: 57.5% 69.1% 40.1% inter: 39.1% 35.2% 12.9%x264 [info]: i16 v,h,dc,p: 44% 10% 7% 39%x264 [info]: i4 v,h,dc,ddl,ddr,vr,hd,vl,hu: 30% 13% 12% 6% 8% 10% 6% 9% 5%x264 [info]: i8c dc,h,v,p: 53% 12% 26% 9%x264 [info]: ref P L0: 76.8% 23.2%x264 [info]: kb/s:1860.29

    Скриншоты

    Скачать .torrent

    Скачать торрент-файл бесплатно и на максимальной скорости!

    Как скачивать? · Что такое торрент? · Рейтинг и ограничения

    !ВНИМАНИЕ!
    Сайт не распространяет и не хранит электронные версии произведений, а занимается лишь лишь предоставлением доступа к создаваемому пользователями каталогу ссылок на торрент-файлы, которые содержат только списки хеш-сумм, убедительная просьба с жалобами обращаться напрямую к пользователю. Файлы для обмена на трекере предоставлены пользователями сайта, и администрация не несёт ответственности за их содержание. Просьба не заливать файлы, защищенные авторскими правами, а также файлы нелегального содержания!


    _________________
    [Профиль] [ЛС]
    Показать сообщения:    
    Ответить на тему

    Текущее время: Сегодня, в 02:34

    Часовой пояс: GMT + 2



    Вы не можете начинать темы
    Вы не можете отвечать на сообщения
    Вы не можете редактировать свои сообщения
    Вы не можете удалять свои сообщения
    Вы не можете голосовать в опросах
    Вы не можете прикреплять файлы к сообщениям
    Вы не можете скачивать файлы