Register  ·  Log in
Forgot password?

  • Потерявшиеся во тьме / Lost After Dark (Йен Кесснер / Ian Kessner) [2014, Канада, ужасы, HDRip] VO (PashaUp)

    Reply to topic
    Author Message


    Post 02-Sep-2015 13:53



    Потерявшиеся во тьме / Lost After Dark
    Страна: Канада
    Жанр: ужасы
    Год выпуска: 2014
    Продолжительность: 01:25:06
    Перевод: Одноголосый закадровый PashaUp
    Cубтитры: нет
    Оригинальная аудиодорожка: нет
    Режиссер: Йен Кесснер / Ian Kessner
    В ролях: Роберт Патрик, Дэвид Липпер, Александр Кэлверт, Джесси Камачо, Майкл Винсент Дагостино, Сара Фишер, Элиз Гэтьен, Ив Харлоу, Стивен Джеймс, Джастин Келли
    Описание: Группа подростков решает как следует оттянуться и угоняет школьный автобус. Но они даже не подозревали, что их поездка обернется встречей с каннибалом-убийцей.
    Качество видео: HDRip (исходник не известен)
    Формат видео: AVI
    Видео: Xvid 720x400 23.98fps 2 102 Kbps
    Аудио: Dolby AC3 48000Hz 6ch 448kbps


    Format : AVI
    Format/Info : Audio Video Interleave
    File size : 1.52 GiB
    Duration : 1h 25mn
    Overall bit rate : 2 557 Kbps
    ID : 0
    Format : MPEG-4 Visual
    Format profile : Advanced Simple@L5
    Format settings, BVOP : Yes
    Format settings, QPel : No
    Format settings, GMC : No warppoints
    Format settings, Matrix : Default (MPEG)
    Codec ID : XVID
    Codec ID/Hint : XviD
    Duration : 1h 25mn
    Bit rate : 2 102 Kbps
    Width : 720 pixels
    Height : 400 pixels
    Display aspect ratio : 16:9
    Frame rate : 23.976 fps
    Resolution : 8 bits
    Colorimetry : 4:2:0
    Scan type : Progressive
    Bits/(Pixel*Frame) : 0.304
    Stream size : 1.25 GiB (82%)
    Writing library : XviD 1.2.1 (UTC 2008-12-04)
    ID : 1
    Format : AC-3
    Format/Info : Audio Coding 3
    Codec ID : 2000
    Duration : 1h 25mn
    Bit rate mode : Constant
    Bit rate : 448 Kbps
    Channel(s) : 6 channels
    Channel positions : Front: L C R, Surround: L R, LFE
    Sampling rate : 48.0 KHz
    Stream size : 273 MiB (18%)
    Alignment : Aligned on interleaves
    Interleave, duration : 64 ms (1.53 video frames)
    Interleave, preload duration : 192 ms

    Скриншот c названием фильма


    Download .torrent

    Download free and at maximum speed!

    How to Download? · What is a torrent? · Ratings and Limitations

    The site does not extend and does not store electronic(digital) versions of products, and only gives access to a reference catalogue created by users on torrent-files which contain only lists of the hash-sums, the earnest entreaty, with complaints(abuse) to access directly to the user. Files for an exchange on tracker are given by users of a site, and the administration does not bear the responsibility for their maintenance. The request to not fill in the files protected by copyrights, and also files of the illegal maintenance!

    [Profile] [PM]
    Display posts from previous:    
    Reply to topic

    The time now is: Today 23:06

    All times are GMT + 3 Hours

    You cannot post new topics in this forum
    You cannot reply to topics in this forum
    You cannot edit your posts in this forum
    You cannot delete your posts in this forum
    You cannot vote in polls in this forum
    You cannot attach files in this forum
    You cannot download files in this forum