BitTorrentTracker PerecTracker.org
BitTorrentTracker PerecTracker.org
    
Регистрация  ·  Вход
 
 · 
Забыли пароль?

  • Потерявшиеся во тьме / Lost After Dark (Йен Кесснер / Ian Kessner) [2014, Канада, ужасы, HDRip] VO (PashaUp)

    Ответить на тему
     
    Автор Сообщение

    Light

    Создавать темы 02-Сен-2015 12:53

           

    [Цитировать]

    Потерявшиеся во тьме / Lost After Dark
    Страна: Канада
    Жанр: ужасы
    Год выпуска: 2014
    Продолжительность: 01:25:06
    Перевод: Одноголосый закадровый PashaUp
    Cубтитры: нет
    Оригинальная аудиодорожка: нет
    Режиссер: Йен Кесснер / Ian Kessner
    В ролях: Роберт Патрик, Дэвид Липпер, Александр Кэлверт, Джесси Камачо, Майкл Винсент Дагостино, Сара Фишер, Элиз Гэтьен, Ив Харлоу, Стивен Джеймс, Джастин Келли
    Описание: Группа подростков решает как следует оттянуться и угоняет школьный автобус. Но они даже не подозревали, что их поездка обернется встречей с каннибалом-убийцей.
    Сэмпл: http://multi-up.com/1064780
    Качество видео: HDRip (исходник не известен)
    Формат видео: AVI
    Видео: Xvid 720x400 23.98fps 2 102 Kbps
    Аудио: Dolby AC3 48000Hz 6ch 448kbps

    MediaInfo

    Format : AVI
    Format/Info : Audio Video Interleave
    File size : 1.52 GiB
    Duration : 1h 25mn
    Overall bit rate : 2 557 Kbps
    Video
    ID : 0
    Format : MPEG-4 Visual
    Format profile : Advanced Simple@L5
    Format settings, BVOP : Yes
    Format settings, QPel : No
    Format settings, GMC : No warppoints
    Format settings, Matrix : Default (MPEG)
    Codec ID : XVID
    Codec ID/Hint : XviD
    Duration : 1h 25mn
    Bit rate : 2 102 Kbps
    Width : 720 pixels
    Height : 400 pixels
    Display aspect ratio : 16:9
    Frame rate : 23.976 fps
    Resolution : 8 bits
    Colorimetry : 4:2:0
    Scan type : Progressive
    Bits/(Pixel*Frame) : 0.304
    Stream size : 1.25 GiB (82%)
    Writing library : XviD 1.2.1 (UTC 2008-12-04)
    Audio
    ID : 1
    Format : AC-3
    Format/Info : Audio Coding 3
    Codec ID : 2000
    Duration : 1h 25mn
    Bit rate mode : Constant
    Bit rate : 448 Kbps
    Channel(s) : 6 channels
    Channel positions : Front: L C R, Surround: L R, LFE
    Sampling rate : 48.0 KHz
    Stream size : 273 MiB (18%)
    Alignment : Aligned on interleaves
    Interleave, duration : 64 ms (1.53 video frames)
    Interleave, preload duration : 192 ms

    Скриншот c названием фильма

    Скриншоты

    Скачать .torrent

    Скачать торрент-файл бесплатно и на максимальной скорости!

    Как скачивать? · Что такое торрент? · Рейтинг и ограничения

    !ВНИМАНИЕ!
    Сайт не распространяет и не хранит электронные версии произведений, а занимается лишь лишь предоставлением доступа к создаваемому пользователями каталогу ссылок на торрент-файлы, которые содержат только списки хеш-сумм, убедительная просьба с жалобами обращаться напрямую к пользователю. Файлы для обмена на трекере предоставлены пользователями сайта, и администрация не несёт ответственности за их содержание. Просьба не заливать файлы, защищенные авторскими правами, а также файлы нелегального содержания!


    _________________
    [Профиль] [ЛС]
    Показать сообщения:    
    Ответить на тему

    Текущее время: Сегодня, в 06:10

    Часовой пояс: GMT + 2



    Вы не можете начинать темы
    Вы не можете отвечать на сообщения
    Вы не можете редактировать свои сообщения
    Вы не можете удалять свои сообщения
    Вы не можете голосовать в опросах
    Вы не можете прикреплять файлы к сообщениям
    Вы не можете скачивать файлы