BitTorrentTracker PerecTracker.org
BitTorrentTracker PerecTracker.org
    
Регистрация  ·  Вход
 
 · 
Забыли пароль?

  • Капитанская дочка (Юрий Тарич) [1928, Драма, экранизация, Немое кино, SATRip]

    Ответить на тему
     
    Автор Сообщение

    Light

    Создавать темы 02-Сен-2015 00:17

           

    [Цитировать]

    Капитанская дочка
    Жанр: Драма, экранизация, Немое кино
    Страна: СССР
    Студия: Совкино
    Год выпуска: 1928
    Продолжительность: 01:26:55
    Режиссёр: Юрий Тарич
    В ролях: Николай Прозоровский, Степан Кузнецов, Иван Клюквин, Ксения Денисова, Борис Тамарин, Вера Стрешнёва, И.Арканов, Николай Симонов, Константин Каренин, Александр Жуков, Пётр Репнин, Клавдия Чебышёва, Мстислав Котельников, Николай Витовтов, Т.Котельникова, Татьяна Барышева, Валерий Плотников
    Описание: По мотивам одноименной повести Александра Сергеевича Пушкина.
    Мемуары пятидесятилетнего дворянина Петра Андреевича Гринева, написанные им во времена царствования императора Александра и посвященные «пугачевщине», в которой семнадцатилетний офицер Петр Гринев по «странному сцеплению обстоятельств» принял невольное участие…
    Дополнительная информация: Релиз:
    Автор рипа: pmv
    Большое спасибо за:
    - исходник DVB - ItarTass
    (Запись потока *.ts со спутника с ТК «Россия-Культура»)
    IMDb = - (нет данных)
    Кинопоиск = - (2) -
    ПРОСЬБА к СКАЧАВШИМ. НЕ УХОДИТЕ С РАЗДАЧИ, ПОМОГИТЕ ДРУГИМ СКАЧАТЬ!!!
    Качество видео: SATRip
    Формат видео: AVI
    Видео: 704x528 (1.33:1), 25 fps, XviD build 73 ~2099 kbps avg, 0.23 bit/pixel
    Аудио: 48 kHz, MPEG Layer 3, 2 ch, ~128.00 kbps avg

    MediaInfo

    General
    Complete name : D\torrents\Капитанская дочка (1928).avi
    Format : AVI
    Format/Info : Audio Video Interleave
    File size : 1.36 GiB
    Duration : 1h 26mn
    Overall bit rate : 2 238 Kbps
    Writing application : VirtualDubMod 1.5.10.3 | www.virtualdub-fr.org || (build 2550/release)
    Writing library : VirtualDubMod build 2550/release
    Video
    ID : 0
    Format : MPEG-4 Visual
    Format profile : Advanced Simple@L5
    Format settings, BVOP : Yes
    Format settings, QPel : No
    Format settings, GMC : No warppoints
    Format settings, Matrix : Default (H.263)
    Codec ID : XVID
    Codec ID/Hint : XviD
    Duration : 1h 26mn
    Bit rate : 2 100 Kbps
    Width : 704 pixels
    Height : 528 pixels
    Display aspect ratio : 4:3
    Frame rate : 25.000 fps
    Resolution : 8 bits
    Colorimetry : 4:2:0
    Scan type : Progressive
    Bits/(Pixel*Frame) : 0.226
    Stream size : 1.28 GiB (94%)
    Writing library : XviD 73
    Audio
    ID : 1
    Format : MPEG Audio
    Format version : Version 1
    Format profile : Layer 3
    Codec ID : 55
    Codec ID/Hint : MP3
    Duration : 1h 26mn
    Bit rate mode : Constant
    Bit rate : 128 Kbps
    Channel(s) : 2 channels
    Sampling rate : 48.0 KHz
    Stream size : 79.6 MiB (6%)
    Alignment : Aligned on interleaves
    Interleave, duration : 40 ms (1.00 video frame)
    Interleave, preload duration : 504 ms

    Скриншот с названием фильма

    Скриншоты

    МОИ РАЗДАЧИ НА РУТРЕКЕРЕ: http://perectracker.org/tracker.php?rid=27390064
    Скачать .torrent

    Скачать торрент-файл бесплатно и на максимальной скорости!

    Как скачивать? · Что такое торрент? · Рейтинг и ограничения

    !ВНИМАНИЕ!
    Сайт не распространяет и не хранит электронные версии произведений, а занимается лишь лишь предоставлением доступа к создаваемому пользователями каталогу ссылок на торрент-файлы, которые содержат только списки хеш-сумм, убедительная просьба с жалобами обращаться напрямую к пользователю. Файлы для обмена на трекере предоставлены пользователями сайта, и администрация не несёт ответственности за их содержание. Просьба не заливать файлы, защищенные авторскими правами, а также файлы нелегального содержания!


    _________________
    [Профиль] [ЛС]
    Показать сообщения:    
    Ответить на тему

    Текущее время: Сегодня, в 14:38

    Часовой пояс: GMT + 2



    Вы не можете начинать темы
    Вы не можете отвечать на сообщения
    Вы не можете редактировать свои сообщения
    Вы не можете удалять свои сообщения
    Вы не можете голосовать в опросах
    Вы не можете прикреплять файлы к сообщениям
    Вы не можете скачивать файлы