BitTorrentTracker PerecTracker.org
BitTorrentTracker PerecTracker.org
    
Регистрация  ·  Вход
 
 · 
Забыли пароль?

  • Телефонная будка / Phone Booth (Джоэл Шумахер / Joel Schumacher) [2002, США, Триллер, HDTV 1080i] Dub + DVO + MVO + AVO + Eng + Sub rus,eng

    Ответить на тему
     
    Автор Сообщение

    Flirldrerve

    Создавать темы 01-Сен-2015 15:53

           

    [Цитировать]

    Телефонная будка / Phone Booth
    Страна: США
    Жанр: Триллер
    Год выпуска: 2002
    Продолжительность: 01:17:40
    Перевод 1: Профессиональный (дублированный)
    Перевод 2: Профессиональный (двухголосый, закадровый)
    Перевод 3: Профессиональный (многоголосый, закадровый)
    Перевод 4: Авторский (одноголосый, закадровый)
    Cубтитры: русский, английский
    Оригинальная аудиодорожка: английский
    Режиссер: Джоэл Шумахер / Joel Schumacher
    В ролях: Колин Фаррелл, Кифер Сазерленд, Форест Уайтекер, Рада Митчелл, Кейти Холмс, Пола Джей Паркер и др.
    Описание: Нью-йоркский журналист Стюарт Шепард отзывается на звонок, разрывающий уличную телефонную будку. Его неосторожность оборачивается ему боком: человек на том конце провода заявляет, что если Шепард положит трубку и выйдет из будки, он его пристрелит. И это не пустая угроза — Шепард ощущает на себе красный глазок лазерного прицела засевшего напротив снайпера. Все проблемы, мучившие его раньше, теперь потеряли всякий смысл. Сейчас он должен заглянуть себе в душу настолько глубоко, чтобы найти там силы стать героем...
    Доп. информация: Запись с канала Первый HD. Из видеоряда удалены все послерекламные вставки. Добавлены полные аудиодорожки 5.1, субтитры - продолжительность файла дана по ним, но не все плееры будут проигрывать до конца, только до конца видеоряда - зависит от настроек плеера (сплиттера). HDTV имеет большее наполнение кадра, чем BD http://screenshotcomparison.com/comparison/76085
    Сэмпл: http://multi-up.com/1064688
    Качество видео: HDTV 1080i
    Формат видео: mkv
    Видео: AVC, 1920x1080 (16/9), 25.000 fps, 13.1 Mbps (0.254 bit/pixel)
    Аудио: AC-3, 48.0 KHz, 6 ch, 384 Kbps, CBR - Dub
    Аудио 2: AC-3, 48.0 KHz, 6 ch, 384 Kbps, CBR - DVO
    Аудио 3: AC-3, 48.0 KHz, 6 ch, 384 Kbps, CBR - MVO
    Аудио 4: AC-3, 48.0 KHz, 6 ch, 384 Kbps, CBR - AVO
    Аудио 5: AC-3, 48.0 KHz, 6 ch, 384 Kbps, CBR - eng

    MediaInfo

    Общее
    Уникальный идентификатор : 199483120704888441655538836635138091052 (0x96130D32CF232DD19FF89376D7DB682C)
    Полное имя : K:\Телефонная будка.mkv
    Формат : Matroska
    Версия формата : Version 2
    Размер файла : 8,23 Гбайт
    Продолжительность : 1 ч. 17 м.
    Общий поток : 15,2 Мбит/сек
    Дата кодирования : UTC 2015-09-01 08:59:44
    Программа кодирования : mkvmerge v8.2.0 ('World of Adventure') 64bit
    Библиотека кодирования : libebml v1.3.1 + libmatroska v1.4.2
    Видео
    Идентификатор : 1
    Формат : AVC
    Формат/Информация : Advanced Video Codec
    Профиль формата : Main@L4
    Параметр CABAC формата : Да
    Параметр ReFrames формата : 3 кадра
    Идентификатор кодека : V_MPEG4/ISO/AVC
    Битрейт : 12,7 Мбит/сек
    Ширина : 1920 пикселей
    Высота : 1080 пикселей
    Соотношение сторон : 16:9
    Режим частоты кадров : Переменный
    Частота кадров в оригинале : 25,000 кадров/сек
    Стандарт вещания : Component
    Цветовое пространство : YUV
    Субдискретизация насыщенности : 4:2:0
    Битовая глубина : 8 бит
    Тип развёртки : Чересстрочная
    Порядок развёртки : Верхнее поле первое
    Заголовок : Телефонная будка / Phone Booth (2002)
    Язык : English
    Default : Да
    Forced : Нет
    Цветовой диапазон : Limited
    Основные цвета : BT.709
    Характеристики трансфера : BT.709
    Коэффициенты матрицы : BT.709
    Аудио #1
    Идентификатор : 2
    Формат : AC-3
    Формат/Информация : Audio Coding 3
    Расширение режима : CM (complete main)
    Параметр Endianness формата : Big
    Идентификатор кодека : A_AC3
    Продолжительность : 1 ч. 17 м.
    Вид битрейта : Постоянный
    Битрейт : 384 Кбит/сек
    Каналы : 6 каналов
    Расположение каналов : Front: L C R, Side: L R, LFE
    Частота : 48,0 КГц
    Метод сжатия : С потерями
    Задержка видео : 11 мс.
    Размер потока : 213 Мбайт (3%)
    Заголовок : Профессиональный (полное дублирование)
    Язык : Russian
    Default : Да
    Forced : Нет
    Аудио #2
    Идентификатор : 3
    Формат : AC-3
    Формат/Информация : Audio Coding 3
    Расширение режима : CM (complete main)
    Параметр Endianness формата : Big
    Идентификатор кодека : A_AC3
    Продолжительность : 1 ч. 17 м.
    Вид битрейта : Постоянный
    Битрейт : 448 Кбит/сек
    Каналы : 6 каналов
    Расположение каналов : Front: L C R, Side: L R, LFE
    Частота : 48,0 КГц
    Метод сжатия : С потерями
    Задержка видео : 11 мс.
    Размер потока : 249 Мбайт (3%)
    Заголовок : Профессиональный (двухголосый, закадровый)
    Язык : Russian
    Default : Нет
    Forced : Нет
    Аудио #3
    Идентификатор : 4
    Формат : AC-3
    Формат/Информация : Audio Coding 3
    Расширение режима : CM (complete main)
    Параметр Endianness формата : Big
    Идентификатор кодека : A_AC3
    Продолжительность : 1 ч. 17 м.
    Вид битрейта : Постоянный
    Битрейт : 448 Кбит/сек
    Каналы : 6 каналов
    Расположение каналов : Front: L C R, Side: L R, LFE
    Частота : 48,0 КГц
    Метод сжатия : С потерями
    Задержка видео : 11 мс.
    Размер потока : 249 Мбайт (3%)
    Заголовок : Профессиональный (многоголосый закадровый)
    Язык : Russian
    Default : Нет
    Forced : Нет
    Аудио #4
    Идентификатор : 5
    Формат : AC-3
    Формат/Информация : Audio Coding 3
    Расширение режима : CM (complete main)
    Параметр Endianness формата : Big
    Идентификатор кодека : A_AC3
    Продолжительность : 1 ч. 17 м.
    Вид битрейта : Постоянный
    Битрейт : 448 Кбит/сек
    Каналы : 6 каналов
    Расположение каналов : Front: L C R, Side: L R, LFE
    Частота : 48,0 КГц
    Метод сжатия : С потерями
    Задержка видео : 11 мс.
    Размер потока : 249 Мбайт (3%)
    Заголовок : Авторский (одноголосый закадровый) Ю.Сербин
    Язык : Russian
    Default : Нет
    Forced : Нет
    Аудио #5
    Идентификатор : 6
    Формат : AC-3
    Формат/Информация : Audio Coding 3
    Расширение режима : CM (complete main)
    Параметр Endianness формата : Big
    Идентификатор кодека : A_AC3
    Продолжительность : 1 ч. 17 м.
    Вид битрейта : Постоянный
    Битрейт : 448 Кбит/сек
    Каналы : 6 каналов
    Расположение каналов : Front: L C R, Side: L R, LFE
    Частота : 48,0 КГц
    Метод сжатия : С потерями
    Задержка видео : 11 мс.
    Размер потока : 249 Мбайт (3%)
    Язык : English
    Default : Нет
    Forced : Нет
    Текст #1
    Идентификатор : 7
    Формат : UTF-8
    Идентификатор кодека : S_TEXT/UTF8
    Идентификатор кодека/Информация : UTF-8 Plain Text
    Язык : Russian
    Default : Нет
    Forced : Нет
    Текст #2
    Идентификатор : 8
    Формат : UTF-8
    Идентификатор кодека : S_TEXT/UTF8
    Идентификатор кодека/Информация : UTF-8 Plain Text
    Язык : English
    Default : Нет
    Forced : Нет

    Скриншоты

    Торрент перезалит 1.09.15 - Из видеоряда удалены все послерекламные вставки. Добавлены полные дорожки 5.1, субтитры. Перепаковано в mkv
    Скачать .torrent

    Скачать торрент-файл бесплатно и на максимальной скорости!

    Как скачивать? · Что такое торрент? · Рейтинг и ограничения

    !ВНИМАНИЕ!
    Сайт не распространяет и не хранит электронные версии произведений, а занимается лишь лишь предоставлением доступа к создаваемому пользователями каталогу ссылок на торрент-файлы, которые содержат только списки хеш-сумм, убедительная просьба с жалобами обращаться напрямую к пользователю. Файлы для обмена на трекере предоставлены пользователями сайта, и администрация не несёт ответственности за их содержание. Просьба не заливать файлы, защищенные авторскими правами, а также файлы нелегального содержания!


    _________________
    [Профиль] [ЛС]
    Показать сообщения:    
    Ответить на тему

    Текущее время: Сегодня, в 23:17

    Часовой пояс: GMT + 2



    Вы не можете начинать темы
    Вы не можете отвечать на сообщения
    Вы не можете редактировать свои сообщения
    Вы не можете удалять свои сообщения
    Вы не можете голосовать в опросах
    Вы не можете прикреплять файлы к сообщениям
    Вы не можете скачивать файлы