Register  ·  Log in
Forgot password?

  • Левша / Southpaw (Антуан Фукуа / Antoine Fuqua) [2015, США, Драма, спорт, боевик, триллер, WEB-DLRip] Dub (iTunes)

    Reply to topic
    Author Message


    Post 01-Sep-2015 12:41



    Левша / Southpaw
    «Преодолей судьбу»
    -Год выпуска: 2015
    Выпущено: США / Escape Artists
    Жанр: драма, спорт, боевик, триллер
    Продолжительность: 01:58:36
    Перевод: Профессиональный (полное дублирование)
    Cубтитры: нет-Режиссер:
    Антуан Фукуа / Antoine Fuqua-В ролях:
    Джейк Джилленхол (Billy Hope), Рэйчел МакАдамс (Maureen Hope), Форест Уитакер (Tick Wills), Уна Лоуренс (Leila Hope), Фифти Сент (Jordan Mains), Скайлан Брукс (Hoppy), Наоми Харрис (Angela Rivera), Виктор Ортис (Ramone), Бо Напп (Jon Jon), Мигель Гомес (Miguel «Magic» Escobar)-Описание:
    У боксера Билли Хоупа все было прекрасно: звание чемпиона, красавица-жена и любимая дочка. Но фортуна отворачивается от него: при трагических обстоятельствах погибает любимая жена, дисквалификация на ринге, нулевые доходы, суд лишает его родительских прав… Хоуп должен отстоять звание чемпиона и вернуть дочь. Есть ли у Хоупа шансы на победу? Все решит его знаменитый хук левой…-| IMDB | КиноПоиск | Сэмпл |-Качество: WEB-DLRip [WEB-DL | 1080p | HDCLUB]
    Формат: AVI
    Видео: 720x304 (2.37:1), 25 fps, XviD build 73 ~1369 kbps avg, 0.25 bit/pixel
    Аудио: 48 kHz, AC3 Dolby Digital, 3/2 (L,C,R,l,r) + LFE ch, ~384.00 kbps avg - iTunes Russia



    Complete name                            : D:\Levsha_2015_WEB-DLRip_iT_by_Dalemake.avi
    Format                                   : AVI
    Format/Info                              : Audio Video Interleave
    File size                                : 1.46 GiB
    Duration                                 : 1h 58mn
    Overall bit rate                         : 1 764 Kbps
    Writing application                      : VirtualDubMod | || (build 2550/release)
    Writing library                          : VirtualDubMod build 2550/release
    ID                                       : 0
    Format                                   : MPEG-4 Visual
    Format profile                           : Advanced Simple@L5
    Format settings, BVOP                    : 1
    Format settings, QPel                    : No
    Format settings, GMC                     : No warppoints
    Format settings, Matrix                  : Custom
    Codec ID                                 : XVID
    Codec ID/Hint                            : XviD
    Duration                                 : 1h 58mn
    Bit rate                                 : 1 370 Kbps
    Width                                    : 720 pixels
    Height                                   : 304 pixels
    Display aspect ratio                     : 2.35:1
    Frame rate                               : 25.000 fps
    Color space                              : YUV
    Chroma subsampling                       : 4:2:0
    Bit depth                                : 8 bits
    Scan type                                : Progressive
    Compression mode                         : Lossy
    Bits/(Pixel*Frame)                       : 0.250
    Stream size                              : 1.13 GiB (78%)
    Writing library                          : XviD 73
    ID                                       : 1
    Format                                   : AC-3
    Format/Info                              : Audio Coding 3
    Mode extension                           : CM (complete main)
    Format settings, Endianness              : Big
    Codec ID                                 : 2000
    Duration                                 : 1h 58mn
    Bit rate mode                            : Constant
    Bit rate                                 : 384 Kbps
    Channel(s)                               : 6 channels
    Channel positions                        : Front: L C R, Side: L R, LFE
    Sampling rate                            : 48.0 KHz
    Bit depth                                : 16 bits
    Compression mode                         : Lossy
    Stream size                              : 326 MiB (22%)
    Alignment                                : Split accross interleaves
    Interleave, duration                     : 40 ms (1.00 video frame)
    Interleave, preload duration             : 500 ms
    Download .torrent

    Download free and at maximum speed!

    How to Download? · What is a torrent? · Ratings and Limitations

    The site does not extend and does not store electronic(digital) versions of products, and only gives access to a reference catalogue created by users on torrent-files which contain only lists of the hash-sums, the earnest entreaty, with complaints(abuse) to access directly to the user. Files for an exchange on tracker are given by users of a site, and the administration does not bear the responsibility for their maintenance. The request to not fill in the files protected by copyrights, and also files of the illegal maintenance!

    [Profile] [PM]
    Display posts from previous:    
    Reply to topic

    The time now is: Today 04:42

    All times are GMT + 3 Hours

    You cannot post new topics in this forum
    You cannot reply to topics in this forum
    You cannot edit your posts in this forum
    You cannot delete your posts in this forum
    You cannot vote in polls in this forum
    You cannot attach files in this forum
    You cannot download files in this forum