BitTorrentTracker PerecTracker.org
BitTorrentTracker PerecTracker.org
    
Регистрация  ·  Вход
 
 · 
Забыли пароль?

  • Антураж / Entourage (Даг Эллин / Doug Ellin) [2015, США, Комедия, HDRip] + Sub Rus + Original Eng

    Ответить на тему
     
    Автор Сообщение

    rechyn

    Создавать темы 31-Авг-2015 23:05

           

    [Цитировать]

    Антураж / Entourage
    Страна: США
    Жанр: Комедия
    Год выпуска: 2015
    Продолжительность: 01:44:30
    Перевод: Субтитры
    Cубтитры: русские
    Оригинальная аудиодорожка: английский
    Режиссер: Даг Эллин / Doug Ellin
    В ролях: Кевин Коннолли, Эдриан Гренье, Кевин Диллон, Джерри Феррара, Джереми Пивен.
    Описание: Полнометражное продолжение долгоиграющей феерии канала HBO расскажет новую историю Винса, И, Черепахи, Драмы и, разумеется, Ари.
    Сэмпл: http://sendfile.su/1150199
    Качество видео: HDRip
    Формат видео: AVI
    Видео: XVID, 720x304 (2.35:1), 23.976 fps, 1471 kbps
    Аудио: AC-3, 48 kHz, 6 ch, 384 kbps
    Формат субтитров: softsub (SRT)

    MediaInfo

    Общее
    Полное имя : C:\Entourage\Entourage.avi
    Формат : AVI
    Формат/Информация : Audio Video Interleave
    Размер файла : 1,36 Гбайт
    Продолжительность : 1 ч. 44 м.
    Общий поток : 1864 Кбит/сек
    Библиотека кодирования : VirtualDub build 35491/release
    Видео
    Идентификатор : 0
    Формат : MPEG-4 Visual
    Профиль формата : Advanced Simple@L5
    Параметр BVOP формата : 2
    Параметр QPel формата : Нет
    Параметр GMC формата : Без точки перехода
    Параметр матрицы формата : Default (H.263)
    Режим смешивания : Сжатый битовый поток
    Идентификатор кодека : XVID
    Идентификатор кодека/Подсказка : XviD
    Продолжительность : 1 ч. 44 м.
    Битрейт : 1471 Кбит/сек
    Ширина : 720 пикселей
    Высота : 304 пикселя
    Соотношение сторон : 2,35:1
    Частота кадров : 23,976 кадра/сек
    Цветовое пространство : YUV
    Субдискретизация насыщенности : 4:2:0
    Битовая глубина : 8 бит
    Тип развёртки : Прогрессивная
    Метод сжатия : С потерями
    Бит/(Пиксели*Кадры) : 0.280
    Размер потока : 1,07 Гбайт (79%)
    Библиотека кодирования : XviD 66
    Аудио
    Идентификатор : 1
    Формат : AC-3
    Формат/Информация : Audio Coding 3
    Расширение режима : CM (complete main)
    Параметр Endianness формата : Big
    Идентификатор кодека : 2000
    Продолжительность : 1 ч. 44 м.
    Вид битрейта : Постоянный
    Битрейт : 384 Кбит/сек
    Каналы : 6 каналов
    Расположение каналов : Front: L C R, Side: L R, LFE
    Частота : 48,0 КГц
    Битовая глубина : 16 бит
    Метод сжатия : С потерями
    Размер потока : 287 Мбайт (21%)
    Выравнивание : Соединение по промежуткам
    Продолжительность промежутка : 42 мс. (1,00 видеокадр)
    Время предзагрузки промежутка : 512 мс.

    Субтитры

    1081
    00:43:34,245 --> 00:43:36,613
    Я набирал твоего отца... все еще жду ответа.
    1082
    00:43:36,615 --> 00:43:39,782
    Я говорил с ним. Я сказал ему, что ему не
    нужно звонить вам, пока мы не поговорили.
    1083
    00:43:39,784 --> 00:43:41,618
    Мне, очевидно, не понравился фильм
    1084
    00:43:41,620 --> 00:43:43,119
    настолько, насколько он понравился вам, Ари.
    1085
    00:43:43,121 --> 00:43:45,321
    - Нет?
    - Нет, это не шедевр.
    1086
    00:43:45,323 --> 00:43:47,223
    Не с моей точки зрения.
    1087
    00:43:47,225 --> 00:43:50,560
    Ну... И, э-э, какова же твоя квалификация, чтобы судить его?
    1088
    00:43:50,562 --> 00:43:53,329
    Я посещал киноакадемию в Остине целый семестр,
    1089
    00:43:53,331 --> 00:43:56,065
    и все мои преподаватели говорили, что у меня отличный вкус.
    1090
    00:43:56,067 --> 00:43:58,668
    Я вижу это по твоему гардеробу.
    1091
    00:44:00,005 --> 00:44:03,172
    Слушайте, Ари, у меня есть мысли об этом фильме,
    1092
    00:44:03,174 --> 00:44:06,175
    и мой отец хотел бы, чтобы вы принимали их всерьез.
    1093
    00:44:06,177 --> 00:44:07,176
    Мысли?
    1094
    00:44:07,178 --> 00:44:08,811
    Даже заметки?
    1095
    00:44:08,813 --> 00:44:10,647
    Как вам удобнее.
    1096
    00:44:10,649 --> 00:44:12,181
    Но большинство из них связаны с
    1097
    00:44:12,183 --> 00:44:14,584
    вырезанием этого мутанта - брата Винсента Чейза.
    1098
    00:44:14,586 --> 00:44:16,452
    Драма?
    1099
    00:44:16,454 --> 00:44:20,390
    Да. Он мерзость и он должен уйти.

    Скриншот c названием фильма

    Скриншоты

    Скачать .torrent

    Скачать торрент-файл бесплатно и на максимальной скорости!

    Как скачивать? · Что такое торрент? · Рейтинг и ограничения

    !ВНИМАНИЕ!
    Сайт не распространяет и не хранит электронные версии произведений, а занимается лишь лишь предоставлением доступа к создаваемому пользователями каталогу ссылок на торрент-файлы, которые содержат только списки хеш-сумм, убедительная просьба с жалобами обращаться напрямую к пользователю. Файлы для обмена на трекере предоставлены пользователями сайта, и администрация не несёт ответственности за их содержание. Просьба не заливать файлы, защищенные авторскими правами, а также файлы нелегального содержания!


    _________________
    [Профиль] [ЛС]
    Показать сообщения:    
    Ответить на тему

    Текущее время: Сегодня, в 07:10

    Часовой пояс: GMT + 2



    Вы не можете начинать темы
    Вы не можете отвечать на сообщения
    Вы не можете редактировать свои сообщения
    Вы не можете удалять свои сообщения
    Вы не можете голосовать в опросах
    Вы не можете прикреплять файлы к сообщениям
    Вы не можете скачивать файлы