BitTorrentTracker PerecTracker.org
BitTorrentTracker PerecTracker.org
    
Регистрация  ·  Вход
 
 · 
Забыли пароль?

  • Трава зелена (Владимир Назаров) [1986 г., комедия, мелодрама, SATRip]

    Ответить на тему
     
    Автор Сообщение

    Light

    Создавать темы 31-Авг-2015 18:53

           

    [Цитировать]

    Трава зелена (2 серии)Год выпуска: 1986.
    Жанр: комедия, мелодрама.
    Продолжительность: 01:03:10 + 01:03:31 (02:06:41).
    Режиссер: Владимир Назаров.
    В ролях:
    Ирина Резникова, Валерий Золотухин, Татьяна Агафонова, Георгий Николаенко, Стасис Пятронайтис, Александр Пятков, Ирина Климова, Владислав Демченко, Станислав Чекан, Екатерина Голубева-Польди, Валерий Беляков, Юрий Думчев.
    Описание:
    Мирно протекает жизнь в семье Анны и Николая, хотя жена каждый день встречает и провожает пароход, на котором работает Иван - ее первая любовь. Анна - уводит колхозных коров от деревенского «активиста» Репехина, безответственного и несерьезного типа, и прячет их на заброшенном займище. Расследование этого дела поручено лейтенанту милиции Коржову.
    Доп. информация:
    Страна: СССР .
    Киностудия: Мосфильм по заказу Гостелерадио СССР.
    Премьера: 26 февраля 1987 года (ТВ).
    Авторы сценария: Виктор Потейкин, Владимир Назаров.
    Операторы: Сергей Вронский, Владимир Мясников.
    Композитор: Александр Журбин.
    Художник: Алексей Лебедев.

    Рип с этой раздачи.
    Большое спасибо Cheef mate за предоставленый материал для рипа!!!

    Качество: SATRip
    Формат: AVI
    Видео: 672x496 (1.35:1), 25 fps, XviD build 73 ~1514 kbps avg, 0.18 bit/pixel
    Аудио: 48 kHz, MPEG Layer 3, 2 ch, ~128.00 kbps avg

    Отчет MI

    1-я серия
    General
    Complete name : Trava.zelena.(2.serii.iz.2).1986.XviD.SATRip_1.46\Trava.zelena.(1-ya.seriya.iz.2).1986.XviD.SATRip_1.46.avi
    Format : AVI
    Format/Info : Audio Video Interleave
    File size : 747 MiB
    Duration : 1h 3mn
    Overall bit rate : 1 652 Kbps
    Writing application : VirtualDubMod 1.5.10.3 | www.virtualdub-fr.org || (build 2550/release)
    Writing library : VirtualDubMod build 2550/release
    Video
    ID : 0
    Format : MPEG-4 Visual
    Format profile : Advanced Simple@L5
    Format settings, BVOP : 2
    Format settings, QPel : No
    Format settings, GMC : No warppoints
    Format settings, Matrix : Custom
    Codec ID : XVID
    Codec ID/Hint : XviD
    Duration : 1h 3mn
    Bit rate : 1 515 Kbps
    Width : 672 pixels
    Height : 496 pixels
    Display aspect ratio : 4:3
    Frame rate : 25.000 fps
    Color space : YUV
    Chroma subsampling : 4:2:0
    Bit depth : 8 bits
    Scan type : Progressive
    Compression mode : Lossy
    Bits/(Pixel*Frame) : 0.182
    Stream size : 684 MiB (92%)
    Writing library : XviD 73
    Audio
    ID : 1
    Format : MPEG Audio
    Format version : Version 1
    Format profile : Layer 3
    Codec ID : 55
    Codec ID/Hint : MP3
    Duration : 1h 3mn
    Bit rate mode : Constant
    Bit rate : 128 Kbps
    Channel(s) : 2 channels
    Sampling rate : 48.0 KHz
    Compression mode : Lossy
    Stream size : 57.8 MiB (8%)
    Alignment : Aligned on interleaves
    Interleave, duration : 40 ms (1.00 video frame)
    Interleave, preload duratio : 504 ms
    Writing library : LAME3.99r
    Encoding settings : -m s -V 4 -q 2 -lowpass 17 -b 128
    2-я серия
    General
    Complete name : Trava.zelena.(2.serii.iz.2).1986.XviD.SATRip_1.46\Trava.zelena.(2-ya.seriya.iz.2).1986.XviD.SATRip_1.46.avi
    Format : AVI
    Format/Info : Audio Video Interleave
    File size : 751 MiB
    Duration : 1h 3mn
    Overall bit rate : 1 653 Kbps
    Writing application : VirtualDubMod 1.5.10.3 | www.virtualdub-fr.org || (build 2550/release)
    Writing library : VirtualDubMod build 2550/release
    Video
    ID : 0
    Format : MPEG-4 Visual
    Format profile : Advanced Simple@L5
    Format settings, BVOP : 2
    Format settings, QPel : No
    Format settings, GMC : No warppoints
    Format settings, Matrix : Custom
    Codec ID : XVID
    Codec ID/Hint : XviD
    Duration : 1h 3mn
    Bit rate : 1 515 Kbps
    Width : 672 pixels
    Height : 496 pixels
    Display aspect ratio : 4:3
    Frame rate : 25.000 fps
    Color space : YUV
    Chroma subsampling : 4:2:0
    Bit depth : 8 bits
    Scan type : Progressive
    Compression mode : Lossy
    Bits/(Pixel*Frame) : 0.182
    Stream size : 688 MiB (92%)
    Writing library : XviD 73
    Audio
    ID : 1
    Format : MPEG Audio
    Format version : Version 1
    Format profile : Layer 3
    Codec ID : 55
    Codec ID/Hint : MP3
    Duration : 1h 3mn
    Bit rate mode : Constant
    Bit rate : 128 Kbps
    Channel(s) : 2 channels
    Sampling rate : 48.0 KHz
    Compression mode : Lossy
    Stream size : 58.2 MiB (8%)
    Alignment : Aligned on interleaves
    Interleave, duration : 40 ms (1.00 video frame)
    Interleave, preload duratio : 504 ms
    Writing library : LAME3.99r
    Encoding settings : -m s -V 4 -q 2 -lowpass 17 -b 128
    Скриншоты

    Альтернативный хост


    Скачать .torrent

    Скачать торрент-файл бесплатно и на максимальной скорости!

    Как скачивать? · Что такое торрент? · Рейтинг и ограничения

    !ВНИМАНИЕ!
    Сайт не распространяет и не хранит электронные версии произведений, а занимается лишь лишь предоставлением доступа к создаваемому пользователями каталогу ссылок на торрент-файлы, которые содержат только списки хеш-сумм, убедительная просьба с жалобами обращаться напрямую к пользователю. Файлы для обмена на трекере предоставлены пользователями сайта, и администрация не несёт ответственности за их содержание. Просьба не заливать файлы, защищенные авторскими правами, а также файлы нелегального содержания!


    _________________
    [Профиль] [ЛС]
    Показать сообщения:    
    Ответить на тему

    Текущее время: Сегодня, в 04:09

    Часовой пояс: GMT + 2



    Вы не можете начинать темы
    Вы не можете отвечать на сообщения
    Вы не можете редактировать свои сообщения
    Вы не можете удалять свои сообщения
    Вы не можете голосовать в опросах
    Вы не можете прикреплять файлы к сообщениям
    Вы не можете скачивать файлы