BitTorrentTracker PerecTracker.org
BitTorrentTracker PerecTracker.org
    
Регистрация  ·  Вход
 
 · 
Забыли пароль?

  • Не просто счастливый конец / Not Another Happy Ending (Джон МакКэй / John McKay) [2013, Великобритания, Мелодрама, комедия, HDRip] MVO (RedDiamond Studio) + Original Eng

    Ответить на тему
     
    Автор Сообщение

    Light

    Создавать темы 31-Авг-2015 14:41

           

    [Цитировать]

    Не просто счастливый конец / Not Another Happy Ending
    Страна: Великобритания
    Жанр: Мелодрама, комедия
    Год выпуска: 2013
    Продолжительность: 01:37:41
    Перевод: Любительский (многоголосый закадровый) RedDiamond Studio
    Cубтитры: нет
    Оригинальная аудиодорожка: английский
    Режиссер: Джон МакКэй / John McKay
    В ролях: Карен Гиллан, Стэнли Вебер, Генри Йэн Кьюсик, Йэн де Кестекер, Гэри Льюис, Фрея Мэйвор, Эми Мэнсон
    Описание: Молодой издатель Том, находящийся на грани разорения, с ужасом узнает, что у его единственного успешного автора - Джейн Локхарт, творческий кризис. Она может писать только в угнетенном душевном состоянии, но, после внезапно обрушившейся на нее славы после выхода ее дебютного романа, она совершенно счастлива! И это в то время, как от банкротства Тома может спасти только скорейший выход нового романа Джейн. Недолго думая, он решает помочь Джейн "обрести вдохновение"...
    Доп. информация: В первоисточнике данного видео (являющемуся единственным вариантом, размещенным в сети) встроены надписи с именами людей, данное видео покупавших. Поэтому надеюсь, что данный релиз оставят хотя бы со статусом сомнительно, ввиду уникальности материала.
    Сэмпл: http://sendfile.su/1150223
    Качество видео: HDRip
    Формат видео: AVI
    Видео: XviD, 704х400 (16х9), 25 Fps, 1809 Kbps
    Аудио: mp3, 48000 Hz, 192 Kbps, stereo (MVO)
    Аудио 2: mp3, 48000 Hz, 192 Kbps, stereo (Original)

    Релиз

    Озвучено релиз-группой RedDiamond Studio
    Текст читали:
    Ольга Брыкина
    Андрей Васильев
    Матвей Кенс
    Саломея Журавская
    Перевод Марии Шмидт

    MediaInfo

    General
    Complete name : C:\Фильмы\Not another happy ending.avi
    Format : AVI
    Format/Info : Audio Video Interleave
    File size : 1.51 GiB
    Duration : 1h 37mn
    Overall bit rate : 2 207 Kbps
    Writing application : VirtualDubMod 1.5.10.2 (build 2542/release)
    Writing library : VirtualDubMod build 2542/release
    Video
    ID : 0
    Format : MPEG-4 Visual
    Format profile : Advanced Simple@L5
    Format settings, BVOP : 2
    Format settings, QPel : No
    Format settings, GMC : No warppoints
    Format settings, Matrix : Default (H.263)
    Codec ID : XVID
    Codec ID/Hint : XviD
    Duration : 1h 37mn
    Bit rate : 1 809 Kbps
    Width : 704 pixels
    Height : 400 pixels
    Display aspect ratio : 16:9
    Frame rate : 25.000 fps
    Color space : YUV
    Chroma subsampling : 4:2:0
    Bit depth : 8 bits
    Scan type : Progressive
    Compression mode : Lossy
    Bits/(Pixel*Frame) : 0.257
    Stream size : 1.23 GiB (82%)
    Writing library : XviD 1.2.1 (UTC 2008-12-04)
    Audio #1
    ID : 1
    Format : MPEG Audio
    Format version : Version 1
    Format profile : Layer 3
    Mode : Joint stereo
    Mode extension : MS Stereo
    Codec ID : 55
    Codec ID/Hint : MP3
    Duration : 1h 37mn
    Bit rate mode : Constant
    Bit rate : 192 Kbps
    Channel(s) : 2 channels
    Sampling rate : 48.0 KHz
    Compression mode : Lossy
    Stream size : 134 MiB (9%)
    Alignment : Aligned on interleaves
    Interleave, duration : 40 ms (1.00 video frame)
    Interleave, preload duratio : 504 ms
    Writing library : LAME3.98r
    Encoding settings : -m j -V 4 -q 3 -lowpass 18.6 -b 192
    Audio #2
    ID : 2
    Format : MPEG Audio
    Format version : Version 1
    Format profile : Layer 3
    Mode : Joint stereo
    Mode extension : MS Stereo
    Codec ID : 55
    Codec ID/Hint : MP3
    Duration : 1h 37mn
    Bit rate mode : Constant
    Bit rate : 192 Kbps
    Channel(s) : 2 channels
    Sampling rate : 48.0 KHz
    Compression mode : Lossy
    Stream size : 134 MiB (9%)
    Alignment : Aligned on interleaves
    Interleave, duration : 40 ms (1.00 video frame)
    Interleave, preload duratio : 504 ms
    Writing library : LAME3.99r
    Encoding settings : -m j -V 4 -q 2 -lowpass 18.6 -b 192

    Скриншот c названием фильма

    Скриншоты

    Скачать .torrent

    Скачать торрент-файл бесплатно и на максимальной скорости!

    Как скачивать? · Что такое торрент? · Рейтинг и ограничения

    !ВНИМАНИЕ!
    Сайт не распространяет и не хранит электронные версии произведений, а занимается лишь лишь предоставлением доступа к создаваемому пользователями каталогу ссылок на торрент-файлы, которые содержат только списки хеш-сумм, убедительная просьба с жалобами обращаться напрямую к пользователю. Файлы для обмена на трекере предоставлены пользователями сайта, и администрация не несёт ответственности за их содержание. Просьба не заливать файлы, защищенные авторскими правами, а также файлы нелегального содержания!


    _________________
    [Профиль] [ЛС]
    Показать сообщения:    
    Ответить на тему

    Текущее время: Сегодня, в 18:02

    Часовой пояс: GMT + 2



    Вы не можете начинать темы
    Вы не можете отвечать на сообщения
    Вы не можете редактировать свои сообщения
    Вы не можете удалять свои сообщения
    Вы не можете голосовать в опросах
    Вы не можете прикреплять файлы к сообщениям
    Вы не можете скачивать файлы