BitTorrentTracker PerecTracker.org
BitTorrentTracker PerecTracker.org
    
Регистрация  ·  Вход
 
 · 
Забыли пароль?

  • Катала (Сергей Бодров, Александр Буравский) [1989, мелодрама, криминал, TVRip]

    Ответить на тему
     
    Автор Сообщение

    Light

    Создавать темы 30-Авг-2015 21:53

           

    [Цитировать]

    Катала
    Жанр: мелодрама, криминал
    Год выпуска: 1989
    Продолжительность: 01:15:11

    Режиссёр: Сергей Бодров, Александр Буравский
    В ролях: Валерий Гаркалин, Елена Сафонова, Нодар Мгалоблишвили, Виктор Павлов, Луиза Мосендз, Кристина Щербакова, Алекса Папакристу, Сергей Газаров, Лариса Кузнецова, Ренат Давлетьяров
    Описание: В основе остросюжетного фильма — история игрока, внедрившегося в среду профессиональных картежников в надежде сорвать крупный куш.Эта авантюра вынуждает героя пройти через множество злоключений, и в итоге неумолимые обстоятельства приводят его к полному проигрышу...
    Качество видео: TVRip
    Формат видео: AVI
    Видео: 640x464 (1.37:1), 25 fps, XviD build 73 ~2381 kbps avg, 0.30 bit/pixel
    Аудио: 48 kHz, AC3 Dolby Digital, 2/0 (L,R) ch, ~192 kbps

    MediaInfo

    Общее
    Полное имя : H:\Катала.1989.tvrip_[1.37]_[teko].avi
    Формат : AVI
    Формат/Информация : Audio Video Interleave
    Размер файла : 1,37 Гбайт
    Продолжительность : 1 ч. 15 м.
    Общий поток : 2591 Кбит/сек
    Программа кодирования : VirtualDubMod 1.5.10.3 | www.virtualdub-fr.org || (build 2550/release)
    Библиотека кодирования : VirtualDubMod build 2550/release
    Видео
    Идентификатор : 0
    Формат : MPEG-4 Visual
    Профиль формата : Advanced Simple@L5
    Параметр BVOP формата : 1
    Параметр QPel формата : Нет
    Параметр GMC формата : Без точки перехода
    Параметр матрицы формата : Выборочная
    Идентификатор кодека : XVID
    Идентификатор кодека/Подсказка : XviD
    Продолжительность : 1 ч. 15 м.
    Битрейт : 2389 Кбит/сек
    Ширина : 640 пикселей
    Высота : 464 пикселя
    Соотношение сторон : 1,379
    Частота кадров : 25,000 кадров/сек
    Цветовое пространство : YUV
    Субдискретизация насыщенности : 4:2:0
    Битовая глубина : 8 бит
    Тип развёртки : Прогрессивная
    Метод сжатия : С потерями
    Бит/(Пиксели*Кадры) : 0.322
    Размер потока : 1,26 Гбайт (92%)
    Библиотека кодирования : XviD 73
    Аудио
    Идентификатор : 1
    Формат : MPEG Audio
    Версия формата : Version 1
    Профиль формата : Layer 2
    Идентификатор кодека : 50
    Продолжительность : 1 ч. 15 м.
    Вид битрейта : Постоянный
    Битрейт : 192 Кбит/сек
    Каналы : 2 канала
    Частота : 48,0 КГц
    Метод сжатия : С потерями
    Размер потока : 104 Мбайт (7%)
    Выравнивание : Соединение по промежуткам
    Продолжительность промежутка : 40 мс. (1,00 видеокадр)
    Время предзагрузки промежутка : 504 мс.

    Скриншоты

    Релиз группы:

    -
    -Торрент-файл перезалит. Переделан рип с более качественного исходника.
    Скачать .torrent

    Скачать торрент-файл бесплатно и на максимальной скорости!

    Как скачивать? · Что такое торрент? · Рейтинг и ограничения

    !ВНИМАНИЕ!
    Сайт не распространяет и не хранит электронные версии произведений, а занимается лишь лишь предоставлением доступа к создаваемому пользователями каталогу ссылок на торрент-файлы, которые содержат только списки хеш-сумм, убедительная просьба с жалобами обращаться напрямую к пользователю. Файлы для обмена на трекере предоставлены пользователями сайта, и администрация не несёт ответственности за их содержание. Просьба не заливать файлы, защищенные авторскими правами, а также файлы нелегального содержания!


    _________________
    [Профиль] [ЛС]
    Показать сообщения:    
    Ответить на тему

    Текущее время: Сегодня, в 16:35

    Часовой пояс: GMT + 2



    Вы не можете начинать темы
    Вы не можете отвечать на сообщения
    Вы не можете редактировать свои сообщения
    Вы не можете удалять свои сообщения
    Вы не можете голосовать в опросах
    Вы не можете прикреплять файлы к сообщениям
    Вы не можете скачивать файлы