BitTorrentTracker PerecTracker.org
BitTorrentTracker PerecTracker.org
    
Регистрация  ·  Вход
 
 · 
Забыли пароль?

  • Зачарованная Десна (Юлия Солнцева) [1964, Фэнтези, драма, экранизация, DVDScreener-AVC]

    Ответить на тему
     
    Автор Сообщение

    Light

    Создавать темы 30-Авг-2015 21:53

           

    [Цитировать]

    Зачарованная Десна
    Жанр: Фэнтези, драма, экранизация
    Страна: СССР
    Студия: Мосфильм (при участии Киностудии им. А.Довженко)
    Год выпуска: 1964
    Продолжительность: 01:17:02
    Режиссёр: Юлия Солнцева (Пересветова)
    В ролях:
    Вова Гончаров … Сашко
    Евгений Самойлов … Александр Петрович, полковник
    Евгений Бондаренко … отец
    Зинаида Кириенко … Одарка, мать
    Борис Андреев … дед Платон
    Иван Переверзев … начальник строительства
    Владимир Гусев … Колодуб
    Ия Маркс
    Дмитрий Орловский
    Григорий Заславец
    Анатолий Юшко … Дробот
    Вячеслав Воронин
    Иван Жеваго … отец Кирилл
    Борис Юрченко … дьяк Лука
    Закадровый текст от автора книги (главного героя) читает Евгений Самойлов
    Описание: По одноименной повести А.П.Довженко.
    О детских годах известного советского кинорежиссера Александра Довженко, который родился на древней черниговской земле, у берегов Десны. Фильм состоит из двух частей. Первая - это мир, показанный через впечатления шестилетнего Сашко. Вторая - воспоминания и рассуждения Сашко, теперь уже немолодого полковника, освобождающего в ходе войны родное село...
    Дополнительная информация: Релиз:
    Автор рипа: pmv
    Исходник найден в сети - благодарность NeilMac1971.
    IMDb = 7,3/10 from 20 users -
    Кинопоиск = 8.333 (40) -
    ПРОСЬБА к СКАЧАВШИМ. НЕ УХОДИТЕ С РАЗДАЧИ, ПОМОГИТЕ ДРУГИМ СКАЧАТЬ!!!
    ВНИМАНИЕ!!! РИП ФОРМАТА mkv (кодек H.264) ВОСПРОИЗВОДИТСЯ НЕ НА ВСЕХ БЫТОВЫХ ВИДЕОПЛЕЕРАХ!!!
    Качество видео: DVDScreener
    Формат видео: MKV
    Видео: AVC (H.264), 720x328 (2.2:1), 25.00 fps, 1150 Kbps avg, 0.191 bit/pixel
    Аудио: AC3, 48 KHz, stereo (2 ch), 192 Kbps

    Скриншот с названием фильма

    MediaInfo

    General
    Complete name : D:\torrents\Зачарованная Десна (1964).mkv
    Format : Matroska
    File size : 741 MiB
    Duration : 1h 17mn
    Overall bit rate : 1 344 Kbps
    Encoded date : UTC 2015-08-29 23:38:54
    Writing application : mkvmerge v8.3.0 ('Over the Horizon') 64bit
    Writing library : libebml v1.3.1 + libmatroska v1.4.2
    Video
    ID : 1
    Format : AVC
    Format/Info : Advanced Video Codec
    Format profile : High@L3.1
    Format settings, CABAC : Yes
    Format settings, ReFrames : 16 frames
    Muxing mode : Container profile=Unknown@3.1
    Codec ID : V_MPEG4/ISO/AVC
    Duration : 1h 17mn
    Bit rate : 1 126 Kbps
    Nominal bit rate : 1 150 Kbps
    Width : 720 pixels
    Height : 328 pixels
    Display aspect ratio : 2.2:1
    Frame rate : 25.000 fps
    Resolution : 8 bits
    Colorimetry : 4:2:0
    Scan type : Progressive
    Bits/(Pixel*Frame) : 0.191
    Stream size : 620 MiB (84%)
    Writing library : x264 core 130 r2273 b3065e6
    Encoding settings : cabac=1 / ref=16 / deblock=1:0:0 / analyse=0x3:0x133 / me=umh / subme=10 / psy=1 / psy_rd=1.00:0.00 / mixed_ref=1 / me_range=24 / chroma_me=1 / trellis=2 / 8x8dct=1 / cqm=0 / deadzone=21,11 / fast_pskip=1 / chroma_qp_offset=-2 / threads=30 / lookahead_threads=2 / sliced_threads=0 / nr=0 / decimate=1 / interlaced=0 / bluray_compat=0 / constrained_intra=0 / bframes=8 / b_pyramid=2 / b_adapt=2 / b_bias=0 / direct=3 / weightb=1 / open_gop=0 / weightp=2 / keyint=250 / keyint_min=25 / scenecut=40 / intra_refresh=0 / rc_lookahead=60 / rc=2pass / mbtree=1 / bitrate=1150 / ratetol=1.0 / qcomp=0.60 / qpmin=0 / qpmax=69 / qpstep=4 / cplxblur=20.0 / qblur=0.5 / ip_ratio=1.40 / aq=1:1.00
    Audio
    ID : 2
    Format : AC-3
    Format/Info : Audio Coding 3
    Codec ID : A_AC3
    Duration : 1h 17mn
    Bit rate mode : Constant
    Bit rate : 192 Kbps
    Channel(s) : 2 channels
    Channel positions : Front: L R
    Sampling rate : 48.0 KHz
    Video delay : 24ms
    Stream size : 106 MiB (14%)
    Language : Russian

    Скриншоты

    МОИ РАЗДАЧИ НА РУТРЕКЕРЕ: http://perectracker.org/tracker.php?rid=27390064
    Скачать .torrent

    Скачать торрент-файл бесплатно и на максимальной скорости!

    Как скачивать? · Что такое торрент? · Рейтинг и ограничения

    !ВНИМАНИЕ!
    Сайт не распространяет и не хранит электронные версии произведений, а занимается лишь лишь предоставлением доступа к создаваемому пользователями каталогу ссылок на торрент-файлы, которые содержат только списки хеш-сумм, убедительная просьба с жалобами обращаться напрямую к пользователю. Файлы для обмена на трекере предоставлены пользователями сайта, и администрация не несёт ответственности за их содержание. Просьба не заливать файлы, защищенные авторскими правами, а также файлы нелегального содержания!


    _________________
    [Профиль] [ЛС]
    Показать сообщения:    
    Ответить на тему

    Текущее время: Сегодня, в 02:38

    Часовой пояс: GMT + 2



    Вы не можете начинать темы
    Вы не можете отвечать на сообщения
    Вы не можете редактировать свои сообщения
    Вы не можете удалять свои сообщения
    Вы не можете голосовать в опросах
    Вы не можете прикреплять файлы к сообщениям
    Вы не можете скачивать файлы