Register  ·  Log in
Forgot password?

  • Кокон / Pod (Мики Китинг / Mickey Keating) [2015, США, Ужасы, триллер, детектив, WEB-DLRip] VO (Хихикающий доктор)

    Reply to topic
    Author Message


    Post 30-Aug-2015 22:53



    Кокон / Pod
    Страна: США
    Жанр: Ужасы, триллер, детектив
    Год выпуска: 2015
    Продолжительность: 01:18:14
    Перевод: Одноголосый закадровый Хихикающий доктор
    Cубтитры: нет
    Оригинальная аудиодорожка: нет
    Режиссер: Мики Китинг / Mickey Keating
    В ролях: Ларри Фесенден, Лорен Эшли Картер, Джон Уэселкауч, Дин Кэйтс, Брайан Морвант, Форрест МакКейн
    Описание: Эд получает странное сообщение от своего брата Мартина, страдающего шизофренией после службы в армии и проходящего курс реабилитации в уединенном домике у озера.Захватив с собой непутевую сестру, он отправляется к Мартину, чтоб узнать правду.
    Качество видео: WEB-DLRip
    Формат видео: AVI
    Видео: Xvid 720x304 23.98fps 1 220 Kbps
    Аудио: MPEG Audio Layer 3 44100Hz stereo 192kbps


    Format : AVI
    Format/Info : Audio Video Interleave
    File size : 796 MiB
    Duration : 1h 18mn
    Overall bit rate : 1 422 Kbps
    Writing application : VirtualDubMod (build 2550/release)
    Writing library : VirtualDubMod build 2550/release
    ID : 0
    Format : MPEG-4 Visual
    Format profile : Simple@L5
    Format settings, BVOP : No
    Format settings, QPel : No
    Format settings, GMC : No warppoints
    Format settings, Matrix : Default (H.263)
    Codec ID : XVID
    Codec ID/Hint : XviD
    Duration : 1h 18mn
    Bit rate : 1 220 Kbps
    Width : 720 pixels
    Height : 304 pixels
    Display aspect ratio : 2.35:1
    Frame rate : 23.976 fps
    Resolution : 8 bits
    Colorimetry : 4:2:0
    Scan type : Progressive
    Bits/(Pixel*Frame) : 0.233
    Stream size : 683 MiB (86%)
    Writing library : Lavc56.13.100
    ID : 1
    Format : MPEG Audio
    Format version : Version 1
    Format profile : Layer 3
    Codec ID : 55
    Codec ID/Hint : MP3
    Duration : 1h 18mn
    Bit rate mode : Constant
    Bit rate : 192 Kbps
    Channel(s) : 2 channels
    Sampling rate : 44.1 KHz
    Stream size : 107 MiB (14%)
    Alignment : Split accross interleaves
    Interleave, duration : 42 ms (1.00 video frame)
    Interleave, preload duration : 500 ms

    Скриншот c названием фильма


    Download .torrent

    Download free and at maximum speed!

    How to Download? · What is a torrent? · Ratings and Limitations

    The site does not extend and does not store electronic(digital) versions of products, and only gives access to a reference catalogue created by users on torrent-files which contain only lists of the hash-sums, the earnest entreaty, with complaints(abuse) to access directly to the user. Files for an exchange on tracker are given by users of a site, and the administration does not bear the responsibility for their maintenance. The request to not fill in the files protected by copyrights, and also files of the illegal maintenance!

    [Profile] [PM]
    Display posts from previous:    
    Reply to topic

    The time now is: Today 23:52

    All times are GMT + 3 Hours

    You cannot post new topics in this forum
    You cannot reply to topics in this forum
    You cannot edit your posts in this forum
    You cannot delete your posts in this forum
    You cannot vote in polls in this forum
    You cannot attach files in this forum
    You cannot download files in this forum