BitTorrentTracker PerecTracker.org
BitTorrentTracker PerecTracker.org
    
Регистрация  ·  Вход
 
 · 
Забыли пароль?

  • Охота / The Hunt (Томас Щепаньский / Thomas Szczepanski) [2012, Франция, Ужасы, триллер, боевик, DVDRip] VO (МЕГАПЫХАРЬ)

    Ответить на тему
     
    Автор Сообщение

    Light

    Создавать темы 30-Авг-2015 21:53

           

    [Цитировать]

    Охота / The Hunt
    Страна: Франция
    Жанр: Ужасы, триллер, боевик
    Год выпуска: 2012
    Продолжительность: 01:14:16
    Перевод: Одноголосый закадровый МЕГАПЫХАРЬ
    Cубтитры: нет
    Оригинальная аудиодорожка: нет
    Режиссер: Томас Щепаньский / Thomas Szczepanski
    В ролях: Гийом Бейлард, Зуриель Де Песлуан, Капа Люсид
    Описание: Репортеру бульварной газеты Алексу поставлено условие: либо он делает сенсационный репортаж, либо ищет себе новое место работы. Оказавшийся в цейтноте журналист рассказывает о своей проблеме подруге — проститутке Саре. Та вспоминает, что в доме одного из своих клиентов случайно увидела видеозапись, на которой с удивительным натурализмом запечатлено убийство. Заинтересовавшись, Алекс отправляется по указанному адресу и проникает в дом.
    Здесь он находит интересные инструкции, крупную сумму денег и номер телефона. Позвонив по нему, журналист получает приглашение прибыть в некое место, где его подбирает неприметный фургон. Так, неожиданно для себя, Алекс оказывается среди охотников. Охотников на человека. Три жертвы, к руке каждой прикован чемоданчик с деньгами, внесенными участниками охоты. Тот, кому удается взять приз, получает свои деньги назад в двойном размере. Все честно — вот только мнения жертвы никто не спрашивает…

    Сэмпл: http://multi-up.com/1064305
    Качество видео: DVDRip
    Формат видео: AVI
    Видео: XviD, 704x304, 25.000 fps, 1175 Kbit/s
    Аудио: AC3, 48.0 KHz, 2 канала, 192 kbit/s

    MediaInfo

    General
    Complete name : J:\The Hunt.avi
    Format : AVI
    Format/Info : Audio Video Interleave
    File size : 731 MiB
    Duration : 1h 14mn
    Overall bit rate : 1 377 Kbps
    Writing application : VirtualDubMod 1.5.10.2 (build 2540/release)
    Writing library : VirtualDubMod build 2540/release
    Video
    ID : 0
    Format : MPEG-4 Visual
    Format profile : Advanced Simple@L5
    Format settings, BVOP : 2
    Format settings, QPel : No
    Format settings, GMC : No warppoints
    Format settings, Matrix : Default (H.263)
    Muxing mode : Packed bitstream
    Codec ID : XVID
    Codec ID/Hint : XviD
    Duration : 1h 14mn
    Bit rate : 1 175 Kbps
    Width : 704 pixels
    Height : 304 pixels
    Display aspect ratio : 2.35:1
    Frame rate : 25.000 fps
    Color space : YUV
    Chroma subsampling : 4:2:0
    Bit depth : 8 bits
    Scan type : Progressive
    Compression mode : Lossy
    Bits/(Pixel*Frame) : 0.220
    Stream size : 624 MiB (85%)
    Writing library : XviD 1.2.1 (UTC 2008-12-04)
    Audio
    ID : 1
    Format : AC-3
    Format/Info : Audio Coding 3
    Mode extension : CM (complete main)
    Format settings, Endianness : Big
    Codec ID : 2000
    Duration : 1h 14mn
    Bit rate mode : Constant
    Bit rate : 192 Kbps
    Channel(s) : 2 channels
    Channel positions : Front: L R
    Sampling rate : 48.0 KHz
    Bit depth : 16 bits
    Compression mode : Lossy
    Stream size : 102 MiB (14%)
    Alignment : Split accross interleaves
    Interleave, duration : 40 ms (1.00 video frame)
    Interleave, preload duration : 500 ms

    Скриншот c названием фильма

    Скриншоты

    Релиз от:
    Скачать .torrent

    Скачать торрент-файл бесплатно и на максимальной скорости!

    Как скачивать? · Что такое торрент? · Рейтинг и ограничения

    !ВНИМАНИЕ!
    Сайт не распространяет и не хранит электронные версии произведений, а занимается лишь лишь предоставлением доступа к создаваемому пользователями каталогу ссылок на торрент-файлы, которые содержат только списки хеш-сумм, убедительная просьба с жалобами обращаться напрямую к пользователю. Файлы для обмена на трекере предоставлены пользователями сайта, и администрация не несёт ответственности за их содержание. Просьба не заливать файлы, защищенные авторскими правами, а также файлы нелегального содержания!


    _________________
    [Профиль] [ЛС]
    Показать сообщения:    
    Ответить на тему

    Текущее время: Сегодня, в 16:03

    Часовой пояс: GMT + 2



    Вы не можете начинать темы
    Вы не можете отвечать на сообщения
    Вы не можете редактировать свои сообщения
    Вы не можете удалять свои сообщения
    Вы не можете голосовать в опросах
    Вы не можете прикреплять файлы к сообщениям
    Вы не можете скачивать файлы