BitTorrentTracker PerecTracker.org
BitTorrentTracker PerecTracker.org
    
Регистрация  ·  Вход
 
 · 
Забыли пароль?

  • Висцеральный- меж канатами безумия / Visceral: Entre las cuerdas de la locura (Фелип Элути / Felipe Eluti) [2012, Чили, Ужасы, DVDRip] VO (МЕГАПЫХАРЬ) + Original Spa

    Ответить на тему
     
    Автор Сообщение

    Light

    Создавать темы 30-Авг-2015 21:53

           

    [Цитировать]

    Висцеральный- меж канатами безумия / Visceral: Entre las cuerdas de la locura
    Страна: Чили
    Жанр: Ужасы
    Год выпуска: 2012
    Продолжительность: 01:15:59
    Перевод: Одноголосый закадровый МЕГАПЫХАРЬ
    Cубтитры: нет
    Оригинальная аудиодорожка: испанский
    Режиссер: Фелип Элути / Felipe Eluti
    В ролях: Фелип Элути, Жозе Мануэль Гарсия, Каролина Саллес
    Описание: Боксёр проигрывает свой самый главный бой в жизни. Он медленно ищет себя, отказавшись от своей мечты, и находит, что жизнь не стоит того, чтобы жить. По крайней мере та, что вокруг него.

    Качество видео: DVDRip
    Формат видео: AVI
    Видео: XviD, 720x404, 23.976 fps, 900 Kbit/s
    Аудио: AC3, 48.0 KHz, 2 канала, 192 kbit/s (рус)
    Аудио 2: AC3, 48.0 KHz, 2 канала, 192 kbit/s (исп)

    MediaInfo

    General
    Complete name : J:\Visceral - Between the Ropes of Madness.2012.DVDRip.avi
    Format : AVI
    Format/Info : Audio Video Interleave
    File size : 712 MiB
    Duration : 1h 16mn
    Overall bit rate : 1 298 Kbps
    Writing application : VirtualDubMod 1.5.10.2 (build 2540/release)
    Writing library : VirtualDubMod build 2540/release
    Video
    ID : 0
    Format : xvid
    Codec ID : xvid
    Duration : 1h 16mn
    Bit rate : 900 Kbps
    Width : 720 pixels
    Height : 404 pixels
    Display aspect ratio : 16:9
    Frame rate : 23.976 fps
    Bits/(Pixel*Frame) : 0.129
    Stream size : 493 MiB (69%)
    Audio #1
    ID : 1
    Format : AC-3
    Format/Info : Audio Coding 3
    Mode extension : CM (complete main)
    Format settings, Endianness : Big
    Codec ID : 2000
    Duration : 1h 16mn
    Bit rate mode : Constant
    Bit rate : 192 Kbps
    Channel(s) : 2 channels
    Channel positions : Front: L R
    Sampling rate : 48.0 KHz
    Bit depth : 16 bits
    Compression mode : Lossy
    Stream size : 105 MiB (15%)
    Alignment : Split accross interleaves
    Interleave, duration : 42 ms (1.00 video frame)
    Interleave, preload duration : 500 ms
    Audio #2
    ID : 2
    Format : AC-3
    Format/Info : Audio Coding 3
    Mode extension : CM (complete main)
    Format settings, Endianness : Big
    Codec ID : 2000
    Duration : 1h 16mn
    Bit rate mode : Constant
    Bit rate : 192 Kbps
    Channel(s) : 2 channels
    Channel positions : Front: L R
    Sampling rate : 48.0 KHz
    Bit depth : 16 bits
    Compression mode : Lossy
    Stream size : 105 MiB (15%)
    Alignment : Split accross interleaves
    Interleave, duration : 42 ms (1.00 video frame)
    Interleave, preload duration : 500 ms

    Скриншот c названием фильма

    Скриншоты

    Релиз от:
    Скачать .torrent

    Скачать торрент-файл бесплатно и на максимальной скорости!

    Как скачивать? · Что такое торрент? · Рейтинг и ограничения

    !ВНИМАНИЕ!
    Сайт не распространяет и не хранит электронные версии произведений, а занимается лишь лишь предоставлением доступа к создаваемому пользователями каталогу ссылок на торрент-файлы, которые содержат только списки хеш-сумм, убедительная просьба с жалобами обращаться напрямую к пользователю. Файлы для обмена на трекере предоставлены пользователями сайта, и администрация не несёт ответственности за их содержание. Просьба не заливать файлы, защищенные авторскими правами, а также файлы нелегального содержания!


    _________________
    [Профиль] [ЛС]
    Показать сообщения:    
    Ответить на тему

    Текущее время: Сегодня, в 10:56

    Часовой пояс: GMT + 2



    Вы не можете начинать темы
    Вы не можете отвечать на сообщения
    Вы не можете редактировать свои сообщения
    Вы не можете удалять свои сообщения
    Вы не можете голосовать в опросах
    Вы не можете прикреплять файлы к сообщениям
    Вы не можете скачивать файлы