Register  ·  Log in
Forgot password?

  • Местный / Indigenous (Аластер Орр / Alastair Orr) [2014, США, Ужасы, DVDRip] VO (Хихикающий доктор)

    Reply to topic
    Author Message


    Post 30-Aug-2015 22:53



    Местный / Indigenous
    Страна: США
    Жанр: Ужасы
    Год выпуска: 2014
    Продолжительность: 01:22:03
    Перевод: Одноголосый закадровый Хихикающий доктор
    Cубтитры: нет
    Оригинальная аудиодорожка: нет
    Режиссер: Аластер Орр / Alastair Orr
    В ролях: Закари Сотенга, Линдси МакКеон, София Пернас, Пирсон Фод, Джэми Андерсон, Лаура Пенуэла, Яна Шлифер, Майкл Мейлор, Джейми Ньюболл
    Описание: Американские туристы путешествуют в Панаме и попадают в очень большие неприятности…
    Качество видео: DVDRip (исходник не известен)
    Формат видео: AVI
    Видео: Xvid 720x400 25.00fps 1 396 Kbps
    Аудио: MPEG Audio Layer 3 44100Hz stereo 192kbps


    Format : AVI
    Format/Info : Audio Video Interleave
    File size : 938 MiB
    Duration : 1h 22mn
    Overall bit rate : 1 598 Kbps
    Writing application : VirtualDubMod (build 2550/release)
    Writing library : VirtualDubMod build 2550/release
    ID : 0
    Format : MPEG-4 Visual
    Format profile : Simple@L3
    Format settings, BVOP : No
    Format settings, QPel : No
    Format settings, GMC : No warppoints
    Format settings, Matrix : Default (H.263)
    Codec ID : XVID
    Codec ID/Hint : XviD
    Duration : 1h 22mn
    Bit rate : 1 396 Kbps
    Width : 720 pixels
    Height : 400 pixels
    Display aspect ratio : 16:9
    Frame rate : 25.000 fps
    Resolution : 8 bits
    Colorimetry : 4:2:0
    Scan type : Progressive
    Bits/(Pixel*Frame) : 0.194
    Stream size : 820 MiB (87%)
    Writing library : XviD 1.1.2 (UTC 2006-11-01)
    ID : 1
    Format : MPEG Audio
    Format version : Version 1
    Format profile : Layer 3
    Codec ID : 55
    Codec ID/Hint : MP3
    Duration : 1h 22mn
    Bit rate mode : Constant
    Bit rate : 192 Kbps
    Channel(s) : 2 channels
    Sampling rate : 44.1 KHz
    Stream size : 113 MiB (12%)
    Alignment : Split accross interleaves
    Interleave, duration : 40 ms (1.00 video frame)
    Interleave, preload duration : 500 ms

    Скриншот c названием фильма


    Download .torrent

    Download free and at maximum speed!

    How to Download? · What is a torrent? · Ratings and Limitations

    The site does not extend and does not store electronic(digital) versions of products, and only gives access to a reference catalogue created by users on torrent-files which contain only lists of the hash-sums, the earnest entreaty, with complaints(abuse) to access directly to the user. Files for an exchange on tracker are given by users of a site, and the administration does not bear the responsibility for their maintenance. The request to not fill in the files protected by copyrights, and also files of the illegal maintenance!

    [Profile] [PM]
    Display posts from previous:    
    Reply to topic

    The time now is: Today 07:58

    All times are GMT + 3 Hours

    You cannot post new topics in this forum
    You cannot reply to topics in this forum
    You cannot edit your posts in this forum
    You cannot delete your posts in this forum
    You cannot vote in polls in this forum
    You cannot attach files in this forum
    You cannot download files in this forum