BitTorrentTracker PerecTracker.org
BitTorrentTracker PerecTracker.org
    
Регистрация  ·  Вход
 
 · 
Забыли пароль?

  • Местный / Indigenous (Аластер Орр / Alastair Orr) [2014, США, Ужасы, DVDRip] VO (Хихикающий доктор)

    Ответить на тему
     
    Автор Сообщение

    Light

    Создавать темы 30-Авг-2015 21:53

           

    [Цитировать]

    Местный / Indigenous
    Страна: США
    Жанр: Ужасы
    Год выпуска: 2014
    Продолжительность: 01:22:03
    Перевод: Одноголосый закадровый Хихикающий доктор
    Cубтитры: нет
    Оригинальная аудиодорожка: нет
    Режиссер: Аластер Орр / Alastair Orr
    В ролях: Закари Сотенга, Линдси МакКеон, София Пернас, Пирсон Фод, Джэми Андерсон, Лаура Пенуэла, Яна Шлифер, Майкл Мейлор, Джейми Ньюболл
    Описание: Американские туристы путешествуют в Панаме и попадают в очень большие неприятности…
    Сэмпл: http://multi-up.com/1064491
    Качество видео: DVDRip (исходник не известен)
    Формат видео: AVI
    Видео: Xvid 720x400 25.00fps 1 396 Kbps
    Аудио: MPEG Audio Layer 3 44100Hz stereo 192kbps

    MediaInfo

    Format : AVI
    Format/Info : Audio Video Interleave
    File size : 938 MiB
    Duration : 1h 22mn
    Overall bit rate : 1 598 Kbps
    Writing application : VirtualDubMod 1.5.10.3 (build 2550/release)
    Writing library : VirtualDubMod build 2550/release
    Video
    ID : 0
    Format : MPEG-4 Visual
    Format profile : Simple@L3
    Format settings, BVOP : No
    Format settings, QPel : No
    Format settings, GMC : No warppoints
    Format settings, Matrix : Default (H.263)
    Codec ID : XVID
    Codec ID/Hint : XviD
    Duration : 1h 22mn
    Bit rate : 1 396 Kbps
    Width : 720 pixels
    Height : 400 pixels
    Display aspect ratio : 16:9
    Frame rate : 25.000 fps
    Resolution : 8 bits
    Colorimetry : 4:2:0
    Scan type : Progressive
    Bits/(Pixel*Frame) : 0.194
    Stream size : 820 MiB (87%)
    Writing library : XviD 1.1.2 (UTC 2006-11-01)
    Audio
    ID : 1
    Format : MPEG Audio
    Format version : Version 1
    Format profile : Layer 3
    Codec ID : 55
    Codec ID/Hint : MP3
    Duration : 1h 22mn
    Bit rate mode : Constant
    Bit rate : 192 Kbps
    Channel(s) : 2 channels
    Sampling rate : 44.1 KHz
    Stream size : 113 MiB (12%)
    Alignment : Split accross interleaves
    Interleave, duration : 40 ms (1.00 video frame)
    Interleave, preload duration : 500 ms

    Скриншот c названием фильма

    Скриншоты

    Скачать .torrent

    Скачать торрент-файл бесплатно и на максимальной скорости!

    Как скачивать? · Что такое торрент? · Рейтинг и ограничения

    !ВНИМАНИЕ!
    Сайт не распространяет и не хранит электронные версии произведений, а занимается лишь лишь предоставлением доступа к создаваемому пользователями каталогу ссылок на торрент-файлы, которые содержат только списки хеш-сумм, убедительная просьба с жалобами обращаться напрямую к пользователю. Файлы для обмена на трекере предоставлены пользователями сайта, и администрация не несёт ответственности за их содержание. Просьба не заливать файлы, защищенные авторскими правами, а также файлы нелегального содержания!


    _________________
    [Профиль] [ЛС]
    Показать сообщения:    
    Ответить на тему

    Текущее время: Сегодня, в 18:30

    Часовой пояс: GMT + 2



    Вы не можете начинать темы
    Вы не можете отвечать на сообщения
    Вы не можете редактировать свои сообщения
    Вы не можете удалять свои сообщения
    Вы не можете голосовать в опросах
    Вы не можете прикреплять файлы к сообщениям
    Вы не можете скачивать файлы