BitTorrentTracker PerecTracker.org
BitTorrentTracker PerecTracker.org
    
Регистрация  ·  Вход
 
 · 
Забыли пароль?

  • Смерть в сети / The Den (Захари Донохью / Zachary Donohue) [2013, США, триллер, ужасы, DVDRip] Dub R5

    Ответить на тему
     
    Автор Сообщение

    Light

    Создавать темы 30-Авг-2015 21:53

           

    [Цитировать]

    Смерть в сети / The Den«А что если вы увидите...»-
    -
    -
    -
    --Страна: США
    Жанр: триллер, ужасы
    Год выпуска: 2013
    Продолжительность: 01:13:32
    Перевод: Профессиональный (полное дублирование)
    Cубтитры: нет
    Режиссер: Захари Донохью / Zachary Donohue
    В ролях: Мелани Папалиа (Elizabeth Benton), Дэвид Шлачтенхауфен (Damien), Мэтт Риди (Sgt. Tisbert), Адам Шапиро (Max), Брайан Белл (Masked killer), Рон Боттитта (Brianne's dad), Кирк Бовилл (Dale), Тристиан Чейз (Video chat boy), Сайда Аррика Экулона (Sally), Джон Грэйди (Head academic), Лили Хоуллман (Jenny)
    Описание: Молодая женщина изучает привычки пользователей чата с использованием веб-камеры и невольно становится свидетелем жестокого убийства…

    Качество видео: DVDRip
    Формат видео: AVI
    Видео: 688x368 (1.87:1), 25 fps, XviD build 73 ~1272 kbps avg, 0.20 bit/pixel
    Аудио: 48 kHz, MPEG Layer 3, 2 ch, ~128.00 kbps avg

    MediaInfo

    Формат : AVI
    Формат/Информация : Audio Video Interleave
    Размер файла : 742 Мбайт
    Продолжительность : 1 ч. 13 м.
    Общий поток : 1410 Кбит/сек
    Программа кодирования : VirtualDubMod 1.5.10.3 | www.virtualdub-fr.org || (build 2550/release)
    Библиотека кодирования : VirtualDubMod build 2550/release
    Видео
    Идентификатор : 0
    Формат : MPEG-4 Visual
    Профиль формата : Advanced Simple@L5
    Параметр BVOP формата : 1
    Параметр QPel формата : Нет
    Параметр GMC формата : Без точки перехода
    Параметр матрицы формата : Выборочная
    Идентификатор кодека : XVID
    Идентификатор кодека/Подсказка : XviD
    Продолжительность : 1 ч. 13 м.
    Битрейт : 1273 Кбит/сек
    Ширина : 688 пикселей
    Высота : 368 пикселей
    Соотношение сторон : 1,85:1
    Частота кадров : 25,000 кадров/сек
    Цветовое пространство : YUV
    Субдискретизация насыщенности : 4:2:0
    Битовая глубина : 8 бит
    Тип развёртки : Прогрессивная
    Метод сжатия : С потерями
    Бит/(Пиксели*Кадры) : 0.201
    Размер потока : 669 Мбайт (90%)
    Библиотека кодирования : XviD 73
    Аудио
    Идентификатор : 1
    Формат : MPEG Audio
    Версия формата : Version 1
    Профиль формата : Layer 3
    Идентификатор кодека : 55
    Идентификатор кодека/Подсказка : MP3
    Продолжительность : 1 ч. 13 м.
    Вид битрейта : Постоянный
    Битрейт : 128 Кбит/сек
    Каналы : 2 канала
    Частота : 48,0 КГц
    Метод сжатия : С потерями
    Размер потока : 67,3 Мбайт (9%)
    Выравнивание : Соединение по промежуткам
    Продолжительность промежутка : 40 мс. (1,00 видеокадр)
    Время предзагрузки промежутка : 504 мс.
    Библиотека кодирования : LAME3.99r
    Настройки программы : -m s -V 4 -q 2 -lowpass 17 -b 128

    Скриншоты

    Скачать .torrent

    Скачать торрент-файл бесплатно и на максимальной скорости!

    Как скачивать? · Что такое торрент? · Рейтинг и ограничения

    !ВНИМАНИЕ!
    Сайт не распространяет и не хранит электронные версии произведений, а занимается лишь лишь предоставлением доступа к создаваемому пользователями каталогу ссылок на торрент-файлы, которые содержат только списки хеш-сумм, убедительная просьба с жалобами обращаться напрямую к пользователю. Файлы для обмена на трекере предоставлены пользователями сайта, и администрация не несёт ответственности за их содержание. Просьба не заливать файлы, защищенные авторскими правами, а также файлы нелегального содержания!


    _________________
    [Профиль] [ЛС]
    Показать сообщения:    
    Ответить на тему

    Текущее время: Сегодня, в 10:42

    Часовой пояс: GMT + 2



    Вы не можете начинать темы
    Вы не можете отвечать на сообщения
    Вы не можете редактировать свои сообщения
    Вы не можете удалять свои сообщения
    Вы не можете голосовать в опросах
    Вы не можете прикреплять файлы к сообщениям
    Вы не можете скачивать файлы