BitTorrentTracker PerecTracker.org
BitTorrentTracker PerecTracker.org
    
Регистрация  ·  Вход
 
 · 
Забыли пароль?

  • Нулевая точка.Точка отсчета / Nullpunkt (Михкел Улк / Mihkel Ulk) [2014, Эстония, молодежная драмеди, экранизация DVDRip] VO (Project Web Money) + original

    Ответить на тему
     
    Автор Сообщение

    Light

    Создавать темы 30-Авг-2015 00:53

           

    [Цитировать]

    Нулевая точка.Точка отсчета / Nullpunkt
    Страна: Эстония
    Жанр: молодежная драмеди
    Год выпуска: 2014
    Продолжительность: 01:54:15
    Перевод: Одноголосый закадровый Project_Web_Money
    Cубтитры: нет
    Оригинальная аудиодорожка: эстонский
    Режиссер: Михкел Улк / Mihkel Ulk
    В ролях: Мярт Пиус, Эпп Ээспяев, Суур Папа, Тамбет Туйск, Саара Кадак, Линда Колде, Реймо Сагор, Хенрик Калмет, Биргитте Сюзанне Хунт, Лийс Линдмаа, Александер Ээри Лаупмаа, Мари Абел, Раймо Пасс, Андрес Мяхар, Ээва Кирке Кивимяги, Ингмар Йыела, Сандра Вахала
    Описание: Дебютный игровой полнометражный фильм молодого эстонского режиссера Михкела Улка. Основой сценария кинокартины стал одноименный роман таллинского писателя Маргуса Кару, изданный в 2010 году.
    Несмотря на то, что премьера фильма в Эстонии состоялась 4 декабря 2014 года, "Нулевая точка" стала самой успешной прокатной кинокартиной года среди фильмов местного производства.
    Главный герой фильма, впечатлительный молодой человек по имени Йоханнес поступает учиться в выпускной 12-й класс таллинской элитной школы. Можно было бы предположить, что его жизнь налаживается, однако он становится объектом травли со стороны одноклассников. Йоханнес ищет поддержку в компании своих старых приятелей с не самого благополучного таллинского микрорайона Ласнамяэ, которые посвящают свое время не школьным занятиям, а воровству, продаже наркотиков, вечеринкам и прочим подобным порокам. Дома Йоханнес должен справляться с прогрессирующим душевным недугом своей матери. Вдобавок ко всему известный музыкальный продюсер присваивает себе авторство текста песни, написанного Йоханнесом. Под гнётом проблем и накопившегося внутреннего напряжения молодой человек вдруг понимает, что достиг нулевой точки, что он должен сделать "полную перезагрузку" и заново по крупицам выстраивать свою жизнь...
    "Нулевая точка" - драма, затрагивающая острые проблемы современной молодёжи: издевательство, насмешки в школе - и вызванная этим заниженная самооценка, трудности вживания в коллектив и стремление к признанию.

    IMDb: 8.10 (338)
    Доп. информация: Огромная благодарность "Феникс Клубу" за перевод и предоставление видеоряда!!!

    Сэмпл: http://multi-up.com/1064142
    Качество видео: DVDRip
    Формат видео: AVI
    Видео: 720х320 (2,25:1), 25 fps, XviD, 1346 Кбит/сек
    Аудио: 224 Кбит/сек, 2 канала, 16 bit, 48,0 КГц, AC3 VO Project_Web_Money
    Аудио 2: 224 Кбит/сек, 2 канала, 16 bit, 48,0 КГц, AC3 original

    MediaInfo

    Нулевая_точка.Точка_отсчета_2014_VO_Project_Web_Money.avi
    Формат : AVI
    Формат/Информация : Audio Video Interleave
    Размер файла : 1,44 Гбайт
    Продолжительность : 1 ч. 54 м.
    Общий поток : 1808 Кбит/сек
    Программа кодирования : VirtualDubMod 1.5.10.2 (build 2540/release)
    Библиотека кодирования : VirtualDubMod build 2540/release
    Видео
    Идентификатор : 0
    Формат : MPEG-4 Visual
    Профиль формата : Simple@L3
    Параметр BVOP формата : Нет
    Параметр QPel формата : Нет
    Параметр GMC формата : Без точки перехода
    Параметр матрицы формата : Default (H.263)
    Идентификатор кодека : XVID
    Идентификатор кодека/Подсказка : XviD
    Продолжительность : 1 ч. 54 м.
    Битрейт : 1346 Кбит/сек
    Ширина : 720 пикс.
    Высота : 320 пикс.
    Соотношение сторон : 2,25:1
    Частота кадров : 25,000 кадр/сек
    Цветовое пространство : YUV
    Подвыборка цветности : 4:2:0
    Битовая глубина : 8 бит
    Тип развёртки : Прогрессивная
    Метод сжатия : С потерями
    Бит/(Пиксели*Кадры) : 0.234
    Размер потока : 1,07 Гбайт (74%)
    Библиотека кодирования : XviD 1.2.1 (UTC 2008-12-04)
    Аудио #1
    Идентификатор : 1
    Формат : AC-3
    Формат/Информация : Audio Coding 3
    Расширение режима : CM (complete main)
    Идентификатор кодека : 2000
    Продолжительность : 1 ч. 54 м.
    Вид битрейта : Постоянный
    Битрейт : 224 Кбит/сек
    Каналы : 2 канала
    Расположение каналов : Front: L R
    Частота : 48,0 КГц
    Битовая глубина : 16 бит
    Метод сжатия : С потерями
    Размер потока : 183 Мбайт (12%)
    Выравнивание : Разделение по промежуткам
    Продолжительность промежутка : 40 мс. (1,00 видеокадр)
    Время предзагрузки промежутка : 500 ms
    Аудио #2
    Идентификатор : 2
    Формат : AC-3
    Формат/Информация : Audio Coding 3
    Расширение режима : CM (complete main)
    Идентификатор кодека : 2000
    Продолжительность : 1 ч. 54 м.
    Вид битрейта : Постоянный
    Битрейт : 224 Кбит/сек
    Каналы : 2 канала
    Расположение каналов : Front: L R
    Частота : 48,0 КГц
    Битовая глубина : 16 бит
    Метод сжатия : С потерями
    Размер потока : 183 Мбайт (12%)
    Выравнивание : Разделение по промежуткам
    Продолжительность промежутка : 40 мс. (1,00 видеокадр)
    Время предзагрузки промежутка : 500 ms

    Скриншот c названием фильма

    Скриншоты

    Скачать .torrent

    Скачать торрент-файл бесплатно и на максимальной скорости!

    Как скачивать? · Что такое торрент? · Рейтинг и ограничения

    !ВНИМАНИЕ!
    Сайт не распространяет и не хранит электронные версии произведений, а занимается лишь лишь предоставлением доступа к создаваемому пользователями каталогу ссылок на торрент-файлы, которые содержат только списки хеш-сумм, убедительная просьба с жалобами обращаться напрямую к пользователю. Файлы для обмена на трекере предоставлены пользователями сайта, и администрация не несёт ответственности за их содержание. Просьба не заливать файлы, защищенные авторскими правами, а также файлы нелегального содержания!


    _________________
    [Профиль] [ЛС]
    Показать сообщения:    
    Ответить на тему

    Текущее время: Сегодня, в 18:05

    Часовой пояс: GMT + 2



    Вы не можете начинать темы
    Вы не можете отвечать на сообщения
    Вы не можете редактировать свои сообщения
    Вы не можете удалять свои сообщения
    Вы не можете голосовать в опросах
    Вы не можете прикреплять файлы к сообщениям
    Вы не можете скачивать файлы