BitTorrentTracker PerecTracker.org
BitTorrentTracker PerecTracker.org
    
Регистрация  ·  Вход
 
 · 
Забыли пароль?

  • Между делом / Unfinished Business (Кен Скотт / Ken Scott ) [2015, США, Комедия, драма, BDRip, HD (720p)] DUB + Original + sub (rus, eng, ukr)

    Ответить на тему
     
    Автор Сообщение

    rechyn

    Создавать темы 28-Авг-2015 19:29

           

    [Цитировать]

    Между делом / Unfinished Business
    «Продуктивная командировка. Реально»
    5.327 / 10 5.30 / 10
    -Год выпуска: 2015
    Страна: США
    Жанр: Комедия, драма
    Продолжительность: 01:30:56
    Перевод: Дублированный (iTunes)
    Оригинальная аудиодорожка: Есть
    Cубтитры: Русские форсированные, Русские, Английские, Украинские
    Режиссёр: Кен Скотт
    Сценарий: Стив Конрад
    Продюсер: Тодд Блэк, Джейсон Блюменталь, Энтони Катагас
    Оператор: Оливер Степлтон
    Композитор: Алекс Вурман
    Художник: Люка Транчино, Хинжу Ким, Пол Ричардс
    Монтаж: Аарон Брок, Джон Полл, Майкл Троник
    В ролях: Винс Вон, Том Уилкинсон, Дэйв Франко, Сиенна Миллер, Ник Фрост, Джеймс Марсден, Джун Рафаэль, Бриттон Сир, Элла Андерсон, Кен Скотт
    Бюджет: $35 000 000
    Сборы в США: $10 116 687
    Сборы в России: $607 690
    Мировая премьера: 3 марта 2015
    Премьера (РФ): 12 марта 2015, «Двадцатый Век Фокс СНГ»
    Описание: Трудолюбивый владелец малого бизнеса и двое его коллег отправляются в Европу, чтобы совершить самую важную сделку в их жизни. Но обычная командировка превратилась в итоге в нечто невообразимое…-Качество исходника: BDRemux (HDClub)
    Качество: BDRip
    Тип: HD (720p)
    Контейнер: M4V
    Видео: H.264, 1280x528, 2.40:1, 3 500 Kbps, 23.976 fps
    Аудио 1: Русский/Дублированный (iTunes), AAC / 2.0 / 156 Kbps / 48.0 KHz
    Аудио 2: Английский/Оригинальная дорожка , AAC / 2.0 / 155 Kbps / 48.0 KHz
    Аудио 3: Украинский/Дублированный (iTunes), AAC / 2.0 / 158 Kbps / 48.0 KHz
    Аудио 4: Русский/Дублированный (iTunes), AC-3 / 5.1 / 384 Kbps / 48.0 KHz
    Аудио 5: Английский/Оригинальная дорожка , AC-3 / 5.1 / 640 Kbps / 48.0 KHz
    Субтитры 1: Русские форсированные
    Субтитры 2: Русские полные
    Субтитры 3: Английские полные
    Субтитры 4: Украинские полные
    -

    iTunes Meta Tags

    Sort Name: Unfinished Business
    XID: Apple:vendor_id:2015-677683
    contentID: 964604154
    Copyright: © 2015 Twentieth Century Fox Film Corporation. All rights reserved.
    Screenwriters: Стив Конрад
    Producers: Тодд Блэк, Джейсон Блюменталь, Энтони Катагас
    Director: Кен Скотт
    Cast: Винс Вон, Том Уилкинсон, Дэйв Франко, Сиенна Миллер, Ник Фрост, Джеймс Марсден, Джун Рафаэль, Бриттон Сир, Элла Андерсон, Кен Скотт, Пётр Иващенко, Валерий Сторожик, Михаил Данилюк, Елена Харитонова, Василий Дахненко
    Studio: 20th Century Fox
    Rating: 11
    Long Description: Трудолюбивый владелец малого бизнеса и двое его коллег отправляются в Европу, чтобы совершить самую важную сделку в их жизни. Но обычная командировка превратилась в итоге в нечто невообразимое...
    Description: Трудолюбивый владелец малого бизнеса и двое его коллег отправляются в Европу, чтобы совершить самую важную сделку в их жизни. Но обычная командировка превратилась в итоге в нечто невообразимое...
    Release Date: 2015-03-03T08:00:00Z
    Genre: Comedy
    Artist: Ken Scott
    Name: Unfinished Business

    MediaInfo

    General
    Complete name                            : /Users/imac/HandBrake/Unfinished Business (720p HD).m4v
    Format                                   : MPEG-4
    Codec ID                                 : M4V
    File size                                : 3.70 GiB
    Duration                                 : 1h 52mn
    Overall bit rate mode                    : Variable
    Overall bit rate                         : 4 708 Kbps
    Movie name                               : Unfinished Business
    Performer                                : Ken Scott
    Genre                                    : Comedy
    Recorded date                            : UTC 2015-03-03 08:00:00
    Encoded date                             : UTC 2015-08-28 10:58:21
    Tagged date                              : UTC 2015-08-28 11:03:06
    Copyright                                : © 2015 Twentieth Century Fox Film Corporation. All rights reserved.
    Cover                                    : Yes
    sonm                                     : Unfinished Business
    desc                                     : Трудолюбивый владелец малого бизнеса и двое его коллег отправляются в Европу, чтобы совершить самую важную сделку в их жизни. Но обычная командировка превратилась в итоге в нечто невообразимое...
    ldes                                     : Трудолюбивый владелец малого бизнеса и двое его коллег отправляются в Европу, чтобы совершить самую важную сделку в их жизни. Но обычная командировка превратилась в итоге в нечто невообразимое...
    hdvd                                     : 1
    stik                                     : 9
    rtng                                     : 0
    cnID                                     : 964604154
    xid                                      : Apple:vendor_id:2015-677683
    iTunEXTC                                 : mpaa|R|400|
    iTunMOVI                                 : <?xml version=\"1.0\" encoding=\"UTF-8\"?> / <!DOCTYPE plist PUBLIC \"-//Apple//DTD PLIST 1.0//EN\" \"http://anonym.to/?http://www.apple.com/DTDs/PropertyList-1.0.dtd\"> / <plist version=\"1.0\"> / <dict> /  <key>cast</key> /  <array> /   <dict> /    <key>name</key> /    <string>Винс Вон</string> /   </dict> /   <dict> /    <key>name</key> /    <string>Том Уилкинсон</string> /   </dict> /   <dict> /    <key>name</key> /    <string>Дэйв Франко</string> /   </dict> /   <dict> /    <key>name</key> /    <string>Сиенна Миллер</string> /   </dict> /   <dict> /    <key>name</key> /    <string>Ник Фрост</string> /   </dict> /   <dict> /    <key>name</key> /    <string>Джеймс Марсден</string> /   </dict> /   <dict> /    <key>name</key> /    <string>Джун Рафаэль</string> /   </dict> /   <dict> /    <key>name</key> /    <string>Бриттон Сир</string> /   </dict> /   <dict> /    <key>name</key> /    <string>Элла Андерсон</string> /   </dict> /   <dict> /    <key>name</key> /    <string>Кен Скотт</string> /   </dict> /   <dict> /    <key>name</key> /    <string>Пётр Иващенко</string> /   </dict> /   <dict> /    <key>name</key> /    <string>Валерий Сторожик</string> /   </dict> /   <dict> /    <key>name</key> /    <string>Михаил Данилюк</string> /   </dict> /   <dict> /    <key>name</key> /    <string>Елена Харитонова</string> /   </dict> /   <dict> /    <key>name</key> /    <string>Василий Дахненко</string> /   </dict> /  </array> /  <key>directors</key> /  <array> /   <dict> /    <key>name</key> /    <string>Кен Скотт</string> /   </dict> /  </array> /  <key>producers</key> /  <array> /   <dict> /    <key>name</key> /    <string>Тодд Блэк</string> /   </dict> /   <dict> /    <key>name</key> /    <string>Джейсон Блюменталь</string> /   </dict> /   <dict> /    <key>name</key> /    <string>Энтони Катагас</string> /   </dict> /  </array> /  <key>screenwriters</key> /  <array> /   <dict> /    <key>name</key> /    <string>Стив Конрад</string> /   </dict> /  </array> /  <key>studio</key> /  <string>20th Century Fox</string> / </dict> / </plist>
    Video #1
    ID                                       : 1
    Format                                   : AVC
    Format/Info                              : Advanced Video Codec
    Format profile                           : High@L3.1
    Format settings, CABAC                   : No
    Format settings, ReFrames                : 3 frames
    Codec ID                                 : avc1
    Codec ID/Info                            : Advanced Video Coding
    Duration                                 : 1h 52mn
    Bit rate mode                            : Variable
    Bit rate                                 : 3 500 Kbps
    Width                                    : 1 280 pixels
    Height                                   : 528 pixels
    Display aspect ratio                     : 2.40:1
    Frame rate mode                          : Variable
    Frame rate                               : 23.976 fps
    Minimum frame rate                       : 23.974 fps
    Maximum frame rate                       : 23.981 fps
    Color space                              : YUV
    Chroma subsampling                       : 4:2:0
    Bit depth                                : 8 bits
    Scan type                                : Progressive
    Bits/(Pixel*Frame)                       : 0.216
    Stream size                              : 2.74 GiB (74%)
    Writing library                          : x264 core 142 r2479 dd79a61
    Encoding settings                        : cabac=0 / ref=3 / deblock=1:-3:-3 / analyse=0x3:0x113 / me=umh / subme=9 / psy=1 / psy_rd=1.00:0.15 / mixed_ref=1 / me_range=32 / chroma_me=1 / trellis=0 / 8x8dct=1 / cqm=0 / deadzone=21,11 / fast_pskip=0 / chroma_qp_offset=-2 / threads=36 / lookahead_threads=3 / sliced_threads=0 / nr=0 / decimate=0 / interlaced=0 / bluray_compat=0 / constrained_intra=0 / bframes=3 / b_pyramid=0 / b_adapt=2 / b_bias=0 / direct=1 / weightb=0 / open_gop=0 / weightp=0 / keyint=240 / keyint_min=24 / scenecut=40 / intra_refresh=0 / rc_lookahead=40 / rc=2pass / mbtree=1 / bitrate=3500 / ratetol=1.0 / qcomp=0.65 / qpmin=0 / qpmax=69 / qpstep=4 / cplxblur=20.0 / qblur=0.5 / vbv_maxrate=9500 / vbv_bufsize=9500 / nal_hrd=none / filler=0 / ip_ratio=1.40 / aq=1:1.10
    Language                                 : English
    Encoded date                             : UTC 2015-08-28 10:58:21
    Tagged date                              : UTC 2015-08-28 10:58:30
    Color primaries                          : BT.709-5, BT.1361, IEC 61966-2-4, SMPTE RP177
    Transfer characteristics                 : BT.709-5, BT.1361
    Matrix coefficients                      : BT.709-5, BT.1361, IEC 61966-2-4 709, SMPTE RP177
    Video #2
    ID                                       : 12
    Format                                   : JPEG
    Codec ID                                 : jpeg
    Duration                                 : 1h 52mn
    Bit rate mode                            : Variable
    Bit rate                                 : 860 bps
    Width                                    : 640 pixels
    Height                                   : 264 pixels
    Display aspect ratio                     : 2.40:1
    Frame rate mode                          : Variable
    Frame rate                               : 0.004 fps
    Minimum frame rate                       : 0.001 fps
    Maximum frame rate                       : 0.008 fps
    Color space                              : YUV
    Chroma subsampling                       : 4:2:0
    Bit depth                                : 8 bits
    Compression mode                         : Lossy
    Bits/(Pixel*Frame)                       : 1.272
    Stream size                              : 630 KiB (0%)
    Encoded date                             : UTC 2015-08-28 10:59:18
    Tagged date                              : UTC 2015-08-28 10:59:19
    Audio #1
    ID                                       : 2
    Format                                   : AAC
    Format/Info                              : Advanced Audio Codec
    Format profile                           : LC
    Codec ID                                 : 40
    Duration                                 : 1h 30mn
    Bit rate mode                            : Variable
    Bit rate                                 : 156 Kbps
    Maximum bit rate                         : 246 Kbps
    Channel(s)                               : 2 channels
    Channel positions                        : Front: L R
    Sampling rate                            : 48.0 KHz
    Compression mode                         : Lossy
    Stream size                              : 101 MiB (3%)
    Language                                 : Russian
    Encoded date                             : UTC 2015-08-28 10:58:21
    Tagged date                              : UTC 2015-08-28 10:58:32
    Audio #2
    ID                                       : 3
    Format                                   : AAC
    Format/Info                              : Advanced Audio Codec
    Format profile                           : LC
    Codec ID                                 : 40
    Duration                                 : 1h 30mn
    Bit rate mode                            : Variable
    Bit rate                                 : 155 Kbps
    Maximum bit rate                         : 267 Kbps
    Channel(s)                               : 2 channels
    Channel positions                        : Front: L R
    Sampling rate                            : 48.0 KHz
    Compression mode                         : Lossy
    Stream size                              : 101 MiB (3%)
    Language                                 : English
    Encoded date                             : UTC 2015-08-28 10:58:21
    Tagged date                              : UTC 2015-08-28 10:59:12
    Audio #3
    ID                                       : 4
    Format                                   : AAC
    Format/Info                              : Advanced Audio Codec
    Format profile                           : LC
    Codec ID                                 : 40
    Duration                                 : 1h 30mn
    Bit rate mode                            : Variable
    Bit rate                                 : 158 Kbps
    Maximum bit rate                         : 229 Kbps
    Channel(s)                               : 2 channels
    Channel positions                        : Front: L R
    Sampling rate                            : 48.0 KHz
    Compression mode                         : Lossy
    Stream size                              : 103 MiB (3%)
    Language                                 : Ukrainian
    Encoded date                             : UTC 2015-08-28 10:58:21
    Tagged date                              : UTC 2015-08-28 10:59:12
    Audio #4
    ID                                       : 5
    Format                                   : AC-3
    Format/Info                              : Audio Coding 3
    Mode extension                           : CM (complete main)
    Format settings, Endianness              : Big
    Codec ID                                 : ac-3
    Duration                                 : 1h 30mn
    Bit rate mode                            : Constant
    Bit rate                                 : 384 Kbps
    Channel(s)                               : 6 channels
    Channel positions                        : Front: L C R, Side: L R, LFE
    Sampling rate                            : 48.0 KHz
    Bit depth                                : 16 bits
    Compression mode                         : Lossy
    Stream size                              : 250 MiB (7%)
    Language                                 : Russian
    Encoded date                             : UTC 2015-08-28 10:58:21
    Tagged date                              : UTC 2015-08-28 10:59:12
    Audio #5
    ID                                       : 6
    Format                                   : AC-3
    Format/Info                              : Audio Coding 3
    Mode extension                           : CM (complete main)
    Format settings, Endianness              : Big
    Codec ID                                 : ac-3
    Duration                                 : 1h 30mn
    Bit rate mode                            : Constant
    Bit rate                                 : 640 Kbps
    Channel(s)                               : 6 channels
    Channel positions                        : Front: L C R, Side: L R, LFE
    Sampling rate                            : 48.0 KHz
    Bit depth                                : 16 bits
    Compression mode                         : Lossy
    Stream size                              : 416 MiB (11%)
    Language                                 : English
    Encoded date                             : UTC 2015-08-28 10:58:21
    Tagged date                              : UTC 2015-08-28 10:59:12
    Text #1
    ID                                       : 7
    Format                                   : Timed text
    Muxing mode                              : sbtl
    Codec ID                                 : tx3g
    Duration                                 : 1h 30mn
    Bit rate mode                            : Variable
    Bit rate                                 : 0 bps
    Stream size                              : 219 Bytes (0%)
    Language                                 : Russian
    Encoded date                             : UTC 2015-08-28 10:58:21
    Tagged date                              : UTC 2015-08-28 10:59:07
    Text #2
    ID                                       : 8
    Format                                   : Timed text
    Muxing mode                              : sbtl
    Codec ID                                 : tx3g
    Duration                                 : 1h 30mn
    Bit rate mode                            : Variable
    Bit rate                                 : 130 bps
    Stream size                              : 86.6 KiB (0%)
    Language                                 : Russian
    Encoded date                             : UTC 2015-08-28 10:58:21
    Tagged date                              : UTC 2015-08-28 10:59:09
    Text #3
    ID                                       : 9
    Format                                   : Timed text
    Muxing mode                              : sbtl
    Codec ID                                 : tx3g
    Duration                                 : 1h 24mn
    Bit rate mode                            : Variable
    Bit rate                                 : 91 bps
    Stream size                              : 56.4 KiB (0%)
    Language                                 : English
    Encoded date                             : UTC 2015-08-28 10:58:21
    Tagged date                              : UTC 2015-08-28 10:59:09
    Text #4
    ID                                       : 10
    Format                                   : Timed text
    Muxing mode                              : sbtl
    Codec ID                                 : tx3g
    Duration                                 : 1h 30mn
    Bit rate mode                            : Variable
    Bit rate                                 : 136 bps
    Stream size                              : 90.7 KiB (0%)
    Language                                 : Ukrainian
    Encoded date                             : UTC 2015-08-28 10:58:21
    Tagged date                              : UTC 2015-08-28 10:59:09
    Text #5
    ID                                       : 11
    Format                                   : Apple text
    Codec ID                                 : text
    Duration                                 : 1h 52mn
    Bit rate mode                            : Variable
    Bit rate                                 : 1 bps
    Stream size                              : 567 Bytes (0%)
    Language                                 : English
    Encoded date                             : UTC 2015-08-28 10:59:12
    Tagged date                              : UTC 2015-08-28 10:59:12
    Menu
    00:00:00.000                             : Chapter 1
    00:03:13.026                             : Chapter 2
    00:06:55.707                             : Chapter 3
    00:10:31.381                             : Chapter 4
    00:14:11.809                             : Chapter 5
    00:19:54.402                             : Chapter 6
    00:22:54.957                             : Chapter 7
    00:27:27.813                             : Chapter 8
    00:31:29.721                             : Chapter 9
    00:34:04.292                             : Chapter 10
    00:37:12.272                             : Chapter 11
    00:41:03.711                             : Chapter 12
    00:44:28.374                             : Chapter 13
    00:47:20.379                             : Chapter 14
    00:50:48.796                             : Chapter 15
    00:55:08.180                             : Chapter 16
    00:58:40.976                             : Chapter 17
    01:02:33.041                             : Chapter 18
    01:05:49.070                             : Chapter 19
    01:08:02.161                             : Chapter 20
    01:11:47.094                             : Chapter 21
    01:15:24.937                             : Chapter 22
    01:20:47.342                             : Chapter 23
    01:24:25.143                             : Chapter 24

    x264 лог

    x264 [info]: frame I:1557  Avg QP:15.70  size:100809
    x264 [info]: frame P:42957 Avg QP:18.02  size: 32518
    x264 [info]: frame B:86310 Avg QP:19.94  size:  9604
    x264 [info]: consecutive B-frames:  3.3% 15.7% 31.9% 49.2%
    x264 [info]: mb I  I16..4:  6.6% 60.5% 32.9%
    x264 [info]: mb P  I16..4:  0.8%  4.8%  2.2%  P16..4: 44.8% 28.0% 11.7%  0.0%  0.0%    skip: 7.6%
    x264 [info]: mb B  I16..4:  0.1%  0.7%  0.2%  B16..8: 48.4% 10.8%  1.9%  direct: 3.6%  skip:34.5%  L0:42.0% L1:50.8% BI: 7.2%
    x264 [info]: 8x8 transform intra:62.4% inter:43.8%
    x264 [info]: coded y,uvDC,uvAC intra: 90.6% 84.5% 67.0% inter: 26.7% 20.0% 10.9%
    x264 [info]: i16 v,h,dc,p: 36% 17%  7% 41%
    x264 [info]: i8 v,h,dc,ddl,ddr,vr,hd,vl,hu:  9%  8%  5% 11% 16% 15% 14% 12% 11%
    x264 [info]: i4 v,h,dc,ddl,ddr,vr,hd,vl,hu:  9%  9%  2% 12% 17% 16% 14% 11%  9%
    x264 [info]: i8c dc,h,v,p: 51% 16% 20% 13%
    x264 [info]: ref P L0: 68.9% 18.4% 12.7%
    x264 [info]: ref B L0: 76.0% 24.0%
    x264 [info]: kb/s:3493.55

    Скриншоты

    -

    Релиз подготовлен для просмотра на Apple TV, iPad, iPhone, iPod Touch.
    Для просмотра данного релиза на компьютере с ОС Windows рекомендуется использовать VLC media player
    Скачать .torrent

    Скачать торрент-файл бесплатно и на максимальной скорости!

    Как скачивать? · Что такое торрент? · Рейтинг и ограничения

    !ВНИМАНИЕ!
    Сайт не распространяет и не хранит электронные версии произведений, а занимается лишь лишь предоставлением доступа к создаваемому пользователями каталогу ссылок на торрент-файлы, которые содержат только списки хеш-сумм, убедительная просьба с жалобами обращаться напрямую к пользователю. Файлы для обмена на трекере предоставлены пользователями сайта, и администрация не несёт ответственности за их содержание. Просьба не заливать файлы, защищенные авторскими правами, а также файлы нелегального содержания!


    _________________
    [Профиль] [ЛС]
    Показать сообщения:    
    Ответить на тему

    Текущее время: Сегодня, в 06:11

    Часовой пояс: GMT + 2



    Вы не можете начинать темы
    Вы не можете отвечать на сообщения
    Вы не можете редактировать свои сообщения
    Вы не можете удалять свои сообщения
    Вы не можете голосовать в опросах
    Вы не можете прикреплять файлы к сообщениям
    Вы не можете скачивать файлы