BitTorrentTracker PerecTracker.org
BitTorrentTracker PerecTracker.org
    
Регистрация  ·  Вход
 
 · 
Забыли пароль?

  • Наша Russia: Яйца судьбы (Глеб Орлов) [2010 г., комедия, BDRip]

    Ответить на тему
     
    Автор Сообщение

    rechyn

    Создавать темы 28-Авг-2015 11:05

           

    [Цитировать]

    Наша Russia: Яйца судьбы--Год выпуска: 2010
    Страна: Россия
    Жанр: комедия
    Продолжительность: 01:26:29
    Режиссер: Глеб Орлов
    -В ролях: Сергей Светлаков, Михаил Галустян, Валерий Магдьяш, Александр Семчев, Виктор Вержбицкий, Роман Мадянов, Наталья Харахорина, Николай Басков, Михаил Багдасаров, Яна Романченко-Описание: Рафшан и Джумжуд, гастарбайтеры из Нубарашена, нелегально приезжают в Москву, где бригадир Леонид получил у одного олигарха заказ на супердорогой ремонт. Потеряв в столице «нацайника», Рафшан и Джумжуд пытаются найти и спасти его, сея повсюду разрушения и хаос. Но в самой безнадёжной ситуации судьба поворачивается к гастарбайтерам лицом — Рафшан и Джумжуд узнают страшную тайну, которая изменит всё…-СЭМПЛ
    Качество: BDRip / Исходник Blu-ray 1080p
    Формат: AVI
    Видео кодек: XviD
    Видео: 704x304 (2.32:1), 23.976 fps, XviD build 63 ~1953 kbps avg, 0.38 bit/pixel
    Аудио: 48 kHz, AC3 Dolby Digital, 3/2 (L,C,R,l,r) + LFE ch, ~448.00 kbps avg
    -

    МИ

    General
    Complete name : E:\TORRENTS ALL READY\Nasha_Rasha_2010_BDRip_1.45_Menen.avi
    Format : AVI
    Format/Info : Audio Video Interleave
    File size : 1.46 GiB
    Duration : 1h 26mn
    Overall bit rate : 2 411 Kbps
    Director : Menen
    Writing application : VirtualDubMod 1.5.10.2 (build 2540/release)
    Video
    ID : 0
    Format : MPEG-4 Visual
    Format profile : Advanced Simple@L5
    Format settings, BVOP : 1
    Format settings, QPel : No
    Format settings, GMC : No warppoints
    Format settings, Matrix : Custom
    Codec ID : XVID
    Codec ID/Hint : XviD
    Duration : 1h 26mn
    Bit rate : 1 954 Kbps
    Width : 704 pixels
    Height : 304 pixels
    Display aspect ratio : 2.35:1
    Frame rate : 23.976 fps
    Color space : YUV
    Chroma subsampling : 4:2:0
    Bit depth : 8 bits
    Scan type : Progressive
    Compression mode : Lossy
    Bits/(Pixel*Frame) : 0.381
    Stream size : 1.18 GiB (81%)
    Writing library : XviD 63
    Audio
    ID : 1
    Format : AC-3
    Format/Info : Audio Coding 3
    Mode extension : CM (complete main)
    Format settings, Endianness : Big
    Codec ID : 2000
    Duration : 1h 26mn
    Bit rate mode : Constant
    Bit rate : 448 Kbps
    Channel(s) : 6 channels
    Channel positions : Front: L C R, Side: L R, LFE
    Sampling rate : 48.0 KHz
    Bit depth : 16 bits
    Compression mode : Lossy
    Stream size : 277 MiB (19%)
    Alignment : Split accross interleaves
    Interleave, duration : 42 ms (1.00 video frame)
    Interleave, preload duration : 500 ms
    -

    Скриншоты

    -
    Скачать .torrent

    Скачать торрент-файл бесплатно и на максимальной скорости!

    Как скачивать? · Что такое торрент? · Рейтинг и ограничения

    !ВНИМАНИЕ!
    Сайт не распространяет и не хранит электронные версии произведений, а занимается лишь лишь предоставлением доступа к создаваемому пользователями каталогу ссылок на торрент-файлы, которые содержат только списки хеш-сумм, убедительная просьба с жалобами обращаться напрямую к пользователю. Файлы для обмена на трекере предоставлены пользователями сайта, и администрация не несёт ответственности за их содержание. Просьба не заливать файлы, защищенные авторскими правами, а также файлы нелегального содержания!


    _________________
    [Профиль] [ЛС]
    Показать сообщения:    
    Ответить на тему

    Текущее время: Сегодня, в 21:48

    Часовой пояс: GMT + 2



    Вы не можете начинать темы
    Вы не можете отвечать на сообщения
    Вы не можете редактировать свои сообщения
    Вы не можете удалять свои сообщения
    Вы не можете голосовать в опросах
    Вы не можете прикреплять файлы к сообщениям
    Вы не можете скачивать файлы