BitTorrentTracker PerecTracker.org
BitTorrentTracker PerecTracker.org
    
Регистрация  ·  Вход
 
 · 
Забыли пароль?

  • Нулевая точка / Nullpunkt (Михкел Улк / Mihkel Ulk) [2014, Эстония, Молодёжная драма, DVDRip] Sub Rus + Original Est

    Ответить на тему
     
    Автор Сообщение

    Light

    Создавать темы 28-Авг-2015 02:41

           

    [Цитировать]

    Нулевая точка / Nullpunkt
    Страна: Эстония
    Жанр: Молодёжная драма
    Год выпуска: 2014
    Продолжительность: 01:54:15
    Перевод: Субтитры
    Cубтитры: русские
    Оригинальная аудиодорожка: эстонский
    Режиссер: Михкел Улк / Mihkel Ulk
    В ролях: Мярт Пиус, Эпп Ээспяев, Суур Папа, Тамбет Туйск, Саара Кадак, Линда Колде, Реймо Сагор, Хенрик Калмет, Биргитте Сюзанне Хунт, Лийс Линдмаа, Александер Ээри Лаупмаа, Мари Абел, Раймо Пасс, Андрес Мяхар, Ээва Кирке Кивимяги, Ингмар Йыела, Сандра Вахала и др.
    Описание: Главный герой фильма, впечатлительный молодой человек по имени Йоханнес поступает учиться в выпускной 12-й класс таллинской элитной школы. Можно было бы предположить, что его жизнь налаживается, однако он становится объектом травли со стороны одноклассников. Йоханнес ищет поддержку в компании своих старых приятелей с не самого благополучного таллинского микрорайона Ласнамяэ, которые посвящают свое время не школьным занятиям, а воровству, продаже наркотиков, вечеринкам и прочим подобным порокам. Дома Йоханнес должен справляться с прогрессирующим душевным недугом своей матери. Вдобавок ко всему известный музыкальный продюсер присваивает себе авторство текста песни, написанного Йоханнесом. Под гнётом проблем и накопившегося внутреннего напряжения молодой человек вдруг понимает, что достиг нулевой точки, что он должен сделать "полную перезагрузку" и заново по крупицам выстраивать свою жизнь...
    "Нулевая точка" - драма, затрагивающая острые проблемы современной молодёжи: издевательство, насмешки в школе - и вызванная этим заниженная самооценка, трудности вживания в коллектив и стремление к признанию.

    Доп. информация:
    Дебютный игровой полнометражный фильм молодого эстонского режиссера Михкела Улка. Основой сценария кинокартины стал одноименный роман таллинского писателя Маргуса Кару, изданный в 2010 году.
    Несмотря на то, что премьера фильма в Эстонии состоялась 4 декабря 2014 года, "Нулевая точка" стала самой успешной прокатной кинокартиной года среди фильмов местного производства. А в январе 2015 года эстонский телеканал ETV показал расширенную 6-серийную телевизионную версию фильма, которая снималась одновременно с полнометражным вариантом.

    Доп. информация: Релиз
    Сэмпл: http://multi-up.com/1063963
    Качество видео: DVDRip
    Формат видео: AVI
    Видео: 720х320 (2,25:1), 25 fps, XviD, 1346 Кбит/сек
    Аудио: 224 Кбит/сек, 2 канала, 16 bit, 48,0 КГц, AC3
    Формат субтитров: softsub (SRT)

    MediaInfo

    Формат : AVI
    Формат/Информация : Audio Video Interleave
    Размер файла : 1,26 Гбайт
    Продолжительность : 1 ч. 54 м.
    Общий поток : 1580 Кбит/сек
    Библиотека кодирования : VirtualDub build 32842/release
    Видео
    Идентификатор : 0
    Формат : MPEG-4 Visual
    Профиль формата : Simple@L3
    Параметр BVOP формата : Нет
    Параметр QPel формата : Нет
    Параметр GMC формата : Без точки перехода
    Параметр матрицы формата : Default (H.263)
    Идентификатор кодека : XVID
    Идентификатор кодека/Подсказка : XviD
    Продолжительность : 1 ч. 54 м.
    Битрейт : 1346 Кбит/сек
    Ширина : 720 пикселей
    Высота : 320 пикселей
    Соотношение сторон : 2,25:1
    Частота кадров : 25,000 кадров/сек
    Цветовое пространство : YUV
    Субдискретизация насыщенности : 4:2:0
    Битовая глубина : 8 бит
    Тип развёртки : Прогрессивная
    Метод сжатия : С потерями
    Бит/(Пиксели*Кадры) : 0.234
    Размер потока : 1,07 Гбайт (85%)
    Библиотека кодирования : XviD 1.2.1 (UTC 2008-12-04)
    Аудио
    Идентификатор : 1
    Формат : AC-3
    Формат/Информация : Audio Coding 3
    Расширение режима : CM (complete main)
    Параметр Endianness формата : Big
    Идентификатор кодека : 2000
    Продолжительность : 1 ч. 54 м.
    Вид битрейта : Постоянный
    Битрейт : 224 Кбит/сек
    Каналы : 2 канала
    Расположение каналов : Front: L R
    Частота : 48,0 КГц
    Метод сжатия : С потерями
    Размер потока : 183 Мбайт (14%)
    Выравнивание : Разделение по промежуткам
    Продолжительность промежутка : 40 мс. (1,00 видеокадр)
    Время предзагрузки промежутка : 500 мс.

    Скриншот c названием фильма

    Скриншоты

    Скриншоты с субтитрами

    Пример субтитров

    91
    00:09:57,800 --> 00:10:01,655
    Где гардероб 12а?
    - Там.
    92
    00:10:03,380 --> 00:10:05,206
    Спасибо!
    93
    00:10:10,680 --> 00:10:14,626
    Привет! Меня зовут Йоханнес.
    Ваш новый одноклассник.
    94
    00:10:14,820 --> 00:10:18,796
    Я Бьянка. Ирка сказала,
    что ты сегодня придёшь.
    95
    00:10:19,780 --> 00:10:22,495
    Привет!
    - Анна.
    96
    00:10:32,500 --> 00:10:35,587
    Я за вечеринку в бане.
    - Давайте проголосуем!
    97
    00:10:35,622 --> 00:10:38,877
    Вето! Вечеринка для того,
    чтобы помыться?
    98
    00:10:39,260 --> 00:10:42,126
    Йоханнес, иди сюда!
    99
    00:10:44,140 --> 00:10:47,307
    Послушайте,
    я представлю Йоханнеса!
    100
    00:10:48,020 --> 00:10:52,970
    Это Кейдо, Кристо, Кристи,
    Эва. Очень хорошая девочка.
    101
    00:10:53,040 --> 00:10:56,124
    Играет в бадминтон.
    Ещё мы играем в группе.
    102
    00:10:56,180 --> 00:10:59,419
    Карин, Ханна, Михкель,
    Кармо, Раймо.
    103
    00:10:59,460 --> 00:11:02,898
    Перед собой ты видишь
    президента класса, Лийзу.
    104
    00:11:03,440 --> 00:11:07,500
    Это Паула.
    Тот, что с большим лбом - Пеэп.
    105
    00:11:08,580 --> 00:11:13,024
    Стинвальд, его дружок, Роби...
    С ними можешь не говорить.
    106
    00:11:14,420 --> 00:11:19,103
    Ого! Стин схватил Лийзу
    за попку!
    107
    00:11:19,300 --> 00:11:22,744
    Неважно. Диана, Ингрид и Марлен.
    108
    00:11:22,940 --> 00:11:27,100
    Значит, только переехал сюда?
    - Нет. Я из Таллинна,
    109
    00:11:27,200 --> 00:11:30,413
    но жил за городом некоторое время.
    - Почему?
    110
    00:11:30,528 --> 00:11:32,740
    Долгая история...
    Скачать .torrent

    Скачать торрент-файл бесплатно и на максимальной скорости!

    Как скачивать? · Что такое торрент? · Рейтинг и ограничения

    !ВНИМАНИЕ!
    Сайт не распространяет и не хранит электронные версии произведений, а занимается лишь лишь предоставлением доступа к создаваемому пользователями каталогу ссылок на торрент-файлы, которые содержат только списки хеш-сумм, убедительная просьба с жалобами обращаться напрямую к пользователю. Файлы для обмена на трекере предоставлены пользователями сайта, и администрация не несёт ответственности за их содержание. Просьба не заливать файлы, защищенные авторскими правами, а также файлы нелегального содержания!


    _________________
    [Профиль] [ЛС]
    Показать сообщения:    
    Ответить на тему

    Текущее время: Сегодня, в 18:20

    Часовой пояс: GMT + 2



    Вы не можете начинать темы
    Вы не можете отвечать на сообщения
    Вы не можете редактировать свои сообщения
    Вы не можете удалять свои сообщения
    Вы не можете голосовать в опросах
    Вы не можете прикреплять файлы к сообщениям
    Вы не можете скачивать файлы