BitTorrentTracker PerecTracker.org
BitTorrentTracker PerecTracker.org
    
Регистрация  ·  Вход
 
 · 
Забыли пароль?

  • Афганская ловушка / Le piege afghan / The Afghan Trap (Мигель Куртуа / Miguel Courtois) [2011, Франция, драма, DVB -> DVD] MVO (1ТВЧ) + Original (Fre) + Sub (Rus, Eng, Deu)

    Ответить на тему
     
    Автор Сообщение

    Light

    Создавать темы 28-Авг-2015 02:41

           

    [Цитировать]

    Афганская ловушка
    Le piège afghan-Страна: Франция
    Жанр: драма
    Год выпуска: 2011
    Продолжительность: 01:30:52Перевод: Профессиональный (многоголосый закадровый) 1ТВЧ; русские субтитры И.Рыбкиной (Éclair Media)
    Cубтитры: русские, английские, немецкие, нидерландские, румынские
    Оригинальная аудиодорожка: французский
    Режиссер: Мигель Куртуа / Miguel Courtois
    В ролях: Мари-Жозе Кроз / Marie-Josée Croze (Nadia), Дэвид Камменос / David Kammenos (Hassan), Соня Манкаи / Sonia Mankaï (Tamana), Самюэль Ле Бьян / Samuel Le Bihan (Colonel Saint Sauveur)
    Описание: Надя — врач на французской военной базе в Афганистане. В свои тридцать она борется за коалицию западных держав. Надя отправляется на миссию в деревню, которая занимает стратегическое положение, но ее конвой попадает в засаду. Вместе с таджикским солдатом девушка попадает в плен к талибам. Солдат погибает, а Надя чудом освобождается, благодаря вмешательству пакистанского лидера Хасана Вали, которого она встретила десять лет назад в Париже. Пользуясь этой дружбой, полковник Лерой из разведки просит девушку сблизиться с Хасаном, чтобы узнать, как враждебна Аль-Каида…
    Доп. информация: Hot Bird (13.0°E) TV5MONDE Europe DVB-S. Русская озвучка взята с раздачи HDTVRip.

    Качество видео: DVB
    Формат видео: DVD Video
    Видео: MPEG Video 2, 720x576@1024x576 (16:9), 25 fps, ~3196 kbps avg, 0.308 bit/pixel
    Аудио 1: AC3, 2 ch, 48 kHz, ~192.00 kbps avg - русский
    Аудио 2: MPEG Audio 2, 2 ch, 48 kHz, ~192.00 kbps avg - французский
    Формат субтитров: prerendered (IDX+SUB)

    MediaInfo

    Title: [apreder]Le_piege_afghan(2011)DVBSize: 2.32 Gb ( 2 432 644,00 KBytes ) - DVD-5Enabled regions: 1, 2, 3, 4, 5, 6, 7, 8
    VTS_01 : Play Length: 01:30:52 Video: PAL 16:9 (720x576) VBR, Auto Letterboxed Audio: Russian (Dolby AC3, 2 ch) Francais (MPEG1, 3 ch) Subtitles: Russian English Deutsch Nederlands Romanian
    ОбщееПолное имя : F:\My Torrents 3\[apreder]Le_piege_afghan(2011)DVB\VIDEO_TS\VTS_01_1.VOBФормат : MPEG-PSРазмер файла : 1024 МбайтПродолжительность : 39 м.Режим общего битрейта : ПеременныйОбщий поток : 3653 Кбит/сек
    ВидеоИдентификатор : 224 (0xE0)Формат : MPEG VideoВерсия формата : Version 2Профиль формата : Main@MainПараметр BVOP формата : ДаПараметр матрицы формата : ВыборочнаяПараметр GOP формата : VariableFormat_Settings_PictureStructure : FrameПродолжительность : 39 м.Вид битрейта : ПеременныйБитрейт : 3196 Кбит/секШирина : 720 пикселейВысота : 576 пикселейСоотношение сторон : 16:9Частота кадров : 25,000 кадров/секСтандарт вещания : PALЦветовое пространство : YUVСубдискретизация насыщенности : 4:2:0Битовая глубина : 8 битТип развёртки : ЧересстрочнаяПорядок развёртки : Верхнее поле первоеМетод сжатия : С потерямиБит/(Пиксели*Кадры) : 0.308Временной код первого кадра : 00:00:00:00Оригинал временного кода : Group of pictures headerРазмер потока : 896 Мбайт (87%)
    Аудио #1Идентификатор : 193 (0xC1)Формат : MPEG AudioВерсия формата : Version 1Профиль формата : Layer 2Режим : Joint stereoРасширение режима : Intensity Stereo + MS StereoПродолжительность : 39 м.Вид битрейта : ПостоянныйБитрейт : 192 Кбит/секКаналы : 2 каналаЧастота : 48,0 КГцМетод сжатия : С потерямиРазмер потока : 53,8 Мбайт (5%)
    Аудио #2Идентификатор : 189 (0xBD)-128 (0x80)Формат : AC-3Формат/Информация : Audio Coding 3Расширение режима : CM (complete main)Параметр Endianness формата : BigРежим смешивания : DVD-VideoПродолжительность : 39 м.Вид битрейта : ПостоянныйБитрейт : 192 Кбит/секКаналы : 2 каналаРасположение каналов : Front: L RЧастота : 48,0 КГцМетод сжатия : С потерямиРазмер потока : 53,8 Мбайт (5%)
    Текст #1Идентификатор : 189 (0xBD)-32 (0x20)Формат : RLEФормат/Информация : Run-length encodingРежим смешивания : DVD-Video
    Текст #2Идентификатор : 189 (0xBD)-33 (0x21)Формат : RLEФормат/Информация : Run-length encodingРежим смешивания : DVD-Video
    Текст #3Идентификатор : 189 (0xBD)-34 (0x22)Формат : RLEФормат/Информация : Run-length encodingРежим смешивания : DVD-Video
    Текст #4Идентификатор : 189 (0xBD)-35 (0x23)Формат : RLEФормат/Информация : Run-length encodingРежим смешивания : DVD-Video

    Скриншот c названием фильма

    Скриншоты

    Резервные скриншоты


    -[2'572]
    Скачать .torrent

    Скачать торрент-файл бесплатно и на максимальной скорости!

    Как скачивать? · Что такое торрент? · Рейтинг и ограничения

    !ВНИМАНИЕ!
    Сайт не распространяет и не хранит электронные версии произведений, а занимается лишь лишь предоставлением доступа к создаваемому пользователями каталогу ссылок на торрент-файлы, которые содержат только списки хеш-сумм, убедительная просьба с жалобами обращаться напрямую к пользователю. Файлы для обмена на трекере предоставлены пользователями сайта, и администрация не несёт ответственности за их содержание. Просьба не заливать файлы, защищенные авторскими правами, а также файлы нелегального содержания!


    _________________
    [Профиль] [ЛС]
    Показать сообщения:    
    Ответить на тему

    Текущее время: Сегодня, в 00:35

    Часовой пояс: GMT + 2



    Вы не можете начинать темы
    Вы не можете отвечать на сообщения
    Вы не можете редактировать свои сообщения
    Вы не можете удалять свои сообщения
    Вы не можете голосовать в опросах
    Вы не можете прикреплять файлы к сообщениям
    Вы не можете скачивать файлы