BitTorrentTracker PerecTracker.org
BitTorrentTracker PerecTracker.org
    
Регистрация  ·  Вход
 
 · 
Забыли пароль?

  • Частоты любви / Frequencies / OXV: The Manual (Даррен Фишер / Darren Fisher) [2013, Австралия, Великобритания, фантастика, драма, мелодрама, HDRip] MVO

    Ответить на тему
     
    Автор Сообщение

    Light

    Создавать темы 28-Авг-2015 02:41

           

    [Цитировать]

    Частоты любви / Frequencies / OXV: The Manual
    Страна: Австралия, Великобритания
    Жанр: фантастика, мелодрама, детектив
    Год выпуска: 2013
    Продолжительность: 01:49:17
    Перевод: Профессиональный (многоголосый закадровый)
    Cубтитры: нет
    Оригинальная аудиодорожка: нет
    Режиссер: Даррен Фишер / Darren Paul Fisher
    В ролях: Дэниэл Фрайзер, Элинор Уайлд, Дилан Ллевелин, Georgina Minter-Brown, Оуэн Паг, Дэвид Бротон Дейвис, Дэвид Барнеби, Тимоти Блок, Риа Кэрролл, Том Инглэнд
    Описание: Не слишком отдаленное будущее. Детей оценивают не только по интеллекту, но и по фреквенции — особой характеристике, показывающей резонанс ребенка с судьбой. Высокая фреквенция — и ты никогда не опоздаешь на поезд, даже если специально выйдешь на час позже. А по пути еще найдешь банкноту в 20 фунтов. Низкая — и все трудности этого мира словно собираются против тебя одного. Даже просто прийти на экзамен вовремя — большая проблема. А что, если парень с супернизкой фреквенцией встретит девушку с супервысокой? Что, если законы вселенной устроены так, что они не могут быть рядом больше одной минуты? Главный герой находит способ изменить свою фреквенцию, чтобы увеличить этот лимит, но обнаруживает весьма странный побочный эффект…

    Качество видео: HDRip
    Формат видео: AVI
    Видео: 624x352, 23.976 fps, XviD ~818 kbps avg, 0.155 bit/pixel
    Аудио: 48 kHz, MPEG Layer 3, 2 ch, 128 kbps avg

    MediaInfo

    General
    Complete name               : C:\Video\OXV The Manual HDRIp.avi
    Format                      : AVI
    Format/Info                 : Audio Video Interleave
    File size                   : 746 MiB
    Duration                    : 1h 49mn
    Overall bit rate            : 955 Kbps
    Writing application         : VirtualDubMod 1.5.10.3 | www.virtualdub-fr.org || (build 2550/release)
    Writing library             : VirtualDubMod build 2550/release
    Video
    ID                          : 0
    Format                      : MPEG-4 Visual
    Format profile              : Advanced Simple@L5
    Format settings, BVOP       : 1
    Format settings, QPel       : No
    Format settings, GMC        : No warppoints
    Format settings, Matrix     : Custom
    Codec ID                    : XVID
    Codec ID/Hint               : XviD
    Duration                    : 1h 49mn
    Bit rate                    : 818 Kbps
    Width                       : 624 pixels
    Height                      : 352 pixels
    Display aspect ratio        : 16:9
    Frame rate                  : 23.976 fps
    Color space                 : YUV
    Chroma subsampling          : 4:2:0
    Bit depth                   : 8 bits
    Scan type                   : Progressive
    Compression mode            : Lossy
    Bits/(Pixel*Frame)          : 0.155
    Stream size                 : 639 MiB (86%)
    Writing library             : XviD 73
    Audio
    ID                          : 1
    Format                      : MPEG Audio
    Format version              : Version 1
    Format profile              : Layer 3
    Codec ID                    : 55
    Codec ID/Hint               : MP3
    Duration                    : 1h 49mn
    Bit rate mode               : Constant
    Bit rate                    : 128 Kbps
    Channel(s)                  : 2 channels
    Sampling rate               : 48.0 KHz
    Compression mode            : Lossy
    Stream size                 : 100 MiB (13%)
    Alignment                   : Aligned on interleaves
    Interleave, duration        : 42 ms (1.00 video frame)
    Interleave, preload duratio : 504 ms
    Writing library             : LAME3.99r
    Encoding settings           : -m s -V 4 -q 2 -lowpass 17 -b 128

    Скриншот с названием фильма

    Скриншоты

    Скачать .torrent

    Скачать торрент-файл бесплатно и на максимальной скорости!

    Как скачивать? · Что такое торрент? · Рейтинг и ограничения

    !ВНИМАНИЕ!
    Сайт не распространяет и не хранит электронные версии произведений, а занимается лишь лишь предоставлением доступа к создаваемому пользователями каталогу ссылок на торрент-файлы, которые содержат только списки хеш-сумм, убедительная просьба с жалобами обращаться напрямую к пользователю. Файлы для обмена на трекере предоставлены пользователями сайта, и администрация не несёт ответственности за их содержание. Просьба не заливать файлы, защищенные авторскими правами, а также файлы нелегального содержания!


    _________________
    [Профиль] [ЛС]
    Показать сообщения:    
    Ответить на тему

    Текущее время: Сегодня, в 20:40

    Часовой пояс: GMT + 2



    Вы не можете начинать темы
    Вы не можете отвечать на сообщения
    Вы не можете редактировать свои сообщения
    Вы не можете удалять свои сообщения
    Вы не можете голосовать в опросах
    Вы не можете прикреплять файлы к сообщениям
    Вы не можете скачивать файлы