BitTorrentTracker PerecTracker.org
BitTorrentTracker PerecTracker.org
    
Регистрация  ·  Вход
 
 · 
Забыли пароль?

  • Молоко, сметана, творог (Фарид Хумбатов) [2011 г., Казахстан, комедия, WEB-DLRip]

    Ответить на тему
     
    Автор Сообщение

    Light

    Создавать темы 28-Авг-2015 02:41

           

    [Цитировать]

    Молоко, сметана, творогГод выпуска: 2011.
    Страна: Казахстан .
    Жанр: комедия.
    Продолжительность: 01:07:29.
    Язык: русский.
    Cубтитры: нет.
    Режиссер: Эля Гильман.
    В ролях:
    Линда Нигматулина, Гульнара Сильбаева, Даулет Абдыгапаров, Дастен Шакиров, Турахан Садыкова, Сафуан Шаймерденов, Диляра Байжанбаева, Алан Черкасов, Игорь Бабичев, Григорий Ефимов.
    Описание:
    На самом деле молочные продукты очень полезные, особенно в том случаи, когда в личной жизни не везет. Итак, главная героиня увлекательной комедийной киноленты Молоко. Сметана. Творог, стервозная и циничная молодая женщина, работающая в банке. И вот, однажды, с ней происходит необычная и загадочная вещь - она после крепкого сна перемещается в тело обычной деревенской крестьянки. Ну а место ее занимает та, в которую она теперь, оказалась.
    Для того, чтобы она вернулась в привычный мир главная героиня вынуждена многому научиться. И начинается все с доения коров...

    Доп. информация:
    Киностудия: Творческое объединение "MediaZavod" по заказу канала "Caspionet".
    Автор сценария: Эля Гильман.
    Оператор: Бегайдар Шалдарбеков.
    Композитор: Тимур Нильдикешев.
    Художники: Сергей Доттер, Нурбол Жапаков.

    Еще постер

    Релиз
    Рип sharky.

    Качество: WEB-DLRip
    Формат: AVI
    Видео: 704x384 (1.83:1), 25 fps, DivX Codec 4.x ~1405 kbps avg, 0.21 bit/pixel
    Аудио: 44.100 kHz, MPEG Layer 3, 2 ch, ~128.00 kbps avg

    Отчет MI

    General
    Complete name : Moloko.smetana.tvorog.2011.DivX.WEB-DLRip.fenixclub.avi
    Format : AVI
    Format/Info : Audio Video Interleave
    File size : 745 MiB
    Duration : 1h 7mn
    Overall bit rate : 1 544 Kbps
    Video
    ID : 0
    Format : MPEG-4 Visual
    Format settings, BVOP : 1
    Format settings, QPel : No
    Format settings, GMC : No warppoints
    Format settings, Matrix : Default (H.263)
    Codec ID : DX50
    Codec ID/Hint : DivX 5
    Duration : 1h 7mn
    Bit rate : 1 406 Kbps
    Width : 704 pixels
    Height : 384 pixels
    Display aspect ratio : 1.85:1
    Frame rate : 25.000 fps
    Color space : YUV
    Chroma subsampling : 4:2:0
    Bit depth : 8 bits
    Scan type : Progressive
    Compression mode : Lossy
    Bits/(Pixel*Frame) : 0.208
    Stream size : 679 MiB (91%)
    Title : Video
    Writing library : DivX 3013
    Audio
    ID : 1
    Format : MPEG Audio
    Format version : Version 1
    Format profile : Layer 3
    Codec ID : 55
    Codec ID/Hint : MP3
    Duration : 1h 7mn
    Bit rate mode : Constant
    Bit rate : 128 Kbps
    Channel(s) : 2 channels
    Sampling rate : 44.1 KHz
    Compression mode : Lossy
    Stream size : 61.8 MiB (8%)
    Alignment : Split accross interleaves
    Interleave, duration : 40 ms (1.00 video frame)
    Interleave, preload duratio : 500 ms
    Title : Audio
    Скриншоты

    Альтернативный хост


    Скачать .torrent

    Скачать торрент-файл бесплатно и на максимальной скорости!

    Как скачивать? · Что такое торрент? · Рейтинг и ограничения

    !ВНИМАНИЕ!
    Сайт не распространяет и не хранит электронные версии произведений, а занимается лишь лишь предоставлением доступа к создаваемому пользователями каталогу ссылок на торрент-файлы, которые содержат только списки хеш-сумм, убедительная просьба с жалобами обращаться напрямую к пользователю. Файлы для обмена на трекере предоставлены пользователями сайта, и администрация не несёт ответственности за их содержание. Просьба не заливать файлы, защищенные авторскими правами, а также файлы нелегального содержания!


    _________________
    [Профиль] [ЛС]
    Показать сообщения:    
    Ответить на тему

    Текущее время: Сегодня, в 16:22

    Часовой пояс: GMT + 2



    Вы не можете начинать темы
    Вы не можете отвечать на сообщения
    Вы не можете редактировать свои сообщения
    Вы не можете удалять свои сообщения
    Вы не можете голосовать в опросах
    Вы не можете прикреплять файлы к сообщениям
    Вы не можете скачивать файлы