BitTorrentTracker PerecTracker.org
BitTorrentTracker PerecTracker.org
    
Регистрация  ·  Вход
 
 · 
Забыли пароль?

  • Спасибо, папа / Thank you, dad (Грач Кешишян / Hrach Keshishyan) [2014, Армения, Лирическая комедия, WEB-DLRip] Original Rus + MVO (в местах с иностранной речью)

    Ответить на тему
     
    Автор Сообщение

    Light

    Создавать темы 27-Авг-2015 14:05

           

    [Цитировать]

    Спасибо, папа / Thank you, dad
    Страна: Армения
    Жанр: Лирическая комедия
    Год выпуска: 2014
    Продолжительность: 01:35:21
    Перевод: Профессиональный (многоголосый закадровый) в местах с иностранной речью
    Cубтитры: отсутствуют
    Оригинальная аудиодорожка: русский
    Режиссер: Грач Кешишян / Hrach Keshishyan
    В ролях: Криста Донарго, Луиза Гамбарян,
    Майрануш Григорян, Дэвид Акопян, Левон Арутюнян,
    Джордж Ховакимян, Джения Мкртумян, Левон Мурадян,
    Еро Мурян, Нарек Нерсисян, и др.
    Описание: В свой день рождения Вирджи, живущая в Нью-Йорке,
    получает неожиданный подарок — наследство в 50 миллионов долларов.
    Только по завещанию отца, которого она не видела больше 10 лет,
    ей надо выполнить одно условие: найти армянина с редчайшим
    именем Баргевос и выйти за него замуж. На все это ей дается только месяц.
    Чтобы встретить свое «счастье», Вирджи через несколько дней вылетает
    в Армению, где, как ей удалось выяснить, живет один-единственный Баргевос...
    Качество видео: WEB-DLRip
    Формат видео: AVI
    Vidео: XviD MPEG-4, 640x320, 2.000, 25.000 fps, ~956 kbps avg, 0.187 bit/pixel
    Аudiо: MP-3 Stereo, CBR 128 kbps 2 ch, 48.0 KHz (Russian + MVO)

    MediaInfo

    ОбщееПолное имя : R:\Thank_you_dad_2014_WEB-DLRip_[perectracker.org].aviФормат : AVIФормат/Информация : Audio Video InterleaveРазмер файла : 746 МбайтПродолжительность : 1 ч. 35 м.Общий поток : 1093 Кбит/секПрограмма кодирования : VirtualDubMod 1.5.10.3 (build 2550/release)Библиотека кодирования : VirtualDubMod build 2550/releaseПравообладатель : rip by ivandubskoj
    ВидеоИдентификатор : 0Формат : MPEG-4 VisualПрофиль формата : Advanced Simple@L5Параметр BVOP формата : 2Параметр QPel формата : НетПараметр GMC формата : Без точки переходаПараметр матрицы формата : ВыборочнаяИдентификатор кодека : XVIDИдентификатор кодека/Подсказка : XviDПродолжительность : 1 ч. 35 м.Битрейт : 956 Кбит/секШирина : 640 пикселейВысота : 320 пикселейСоотношение сторон : 2,000Частота кадров : 25,000 кадров/секЦветовое пространство : YUVСубдискретизация насыщенности : 4:2:0Битовая глубина : 8 битТип развёртки : ПрогрессивнаяМетод сжатия : С потерямиБит/(Пиксели*Кадры) : 0.187Размер потока : 652 Мбайт (87%)Библиотека кодирования : XviD 73
    АудиоИдентификатор : 1Формат : MPEG AudioВерсия формата : Version 1Профиль формата : Layer 3Идентификатор кодека : 55Идентификатор кодека/Подсказка : MP3Продолжительность : 1 ч. 35 м.Вид битрейта : ПостоянныйБитрейт : 128 Кбит/секКаналы : 2 каналаЧастота : 48,0 КГцМетод сжатия : С потерямиРазмер потока : 87,3 Мбайт (12%)Выравнивание : Соединение по промежуткамПродолжительность промежутка : 40 мс. (1,00 видеокадр)Время предзагрузки промежутка : 504 мс.Библиотека кодирования : LAME3.99rНастройки программы : -m s -V 4 -q 0 -lowpass 17 -b 128

    Скриншот c названием фильма

    Скриншоты

    Скачать .torrent

    Скачать торрент-файл бесплатно и на максимальной скорости!

    Как скачивать? · Что такое торрент? · Рейтинг и ограничения

    !ВНИМАНИЕ!
    Сайт не распространяет и не хранит электронные версии произведений, а занимается лишь лишь предоставлением доступа к создаваемому пользователями каталогу ссылок на торрент-файлы, которые содержат только списки хеш-сумм, убедительная просьба с жалобами обращаться напрямую к пользователю. Файлы для обмена на трекере предоставлены пользователями сайта, и администрация не несёт ответственности за их содержание. Просьба не заливать файлы, защищенные авторскими правами, а также файлы нелегального содержания!


    _________________
    [Профиль] [ЛС]
    Показать сообщения:    
    Ответить на тему

    Текущее время: Сегодня, в 18:21

    Часовой пояс: GMT + 2



    Вы не можете начинать темы
    Вы не можете отвечать на сообщения
    Вы не можете редактировать свои сообщения
    Вы не можете удалять свои сообщения
    Вы не можете голосовать в опросах
    Вы не можете прикреплять файлы к сообщениям
    Вы не можете скачивать файлы