Register  ·  Log in
Forgot password?

  • Ночная бригада / The Night Crew / Blackwater (Кристиан Сесма / Christian Sesma) [2015, США, боевик, триллер, HDRip] MVO (iTunes)

    Reply to topic
    Author Message


    Post 27-Aug-2015 10:53



    Ночная бригада / The Night Crew / Blackwater
    Страна: США
    Жанр: боевик, триллер
    Год выпуска: 2015
    Продолжительность: 01:28:38
    Перевод: Профессиональный (многоголосый закадровый) iTunes
    Cубтитры: нет
    Оригинальная аудиодорожка: нет
    Режиссер: Кристиан Сесма / Christian Sesma
    В ролях: Дэнни Трехо, Джейсон Мьюз, Чести Бальестерос, Люк Госс, Букем Вудбайн, Кристин Нгуйен, Жаклин Лорд, Бруна Рубио, Роберто «Санс» Санчес, Лусиана Фолхебер
    Описание: Команда безбашенных искателей приключений пытается выжить ночью в мотеле посреди пустыни, обороняясь от орды жестоких убийц.
    Качество видео: HDRip (исходник не известен)
    Формат видео: AVI
    Видео: Xvid 720x400 25.00fps 1 814 Kbps
    Аудио: Dolby AC3 48000Hz 6ch 384kbps


    Format : AVI
    Format/Info : Audio Video Interleave
    File size : 1.37 GiB
    Duration : 1h 28mn
    Overall bit rate : 2 207 Kbps
    Writing application : VirtualDubMod (build 2540/release)
    Writing library : VirtualDubMod build 2540/release
    ID : 0
    Format : MPEG-4 Visual
    Format profile : Advanced Simple@L5
    Format settings, BVOP : Yes
    Format settings, QPel : No
    Format settings, GMC : No warppoints
    Format settings, Matrix : Default (MPEG)
    Codec ID : XVID
    Codec ID/Hint : XviD
    Duration : 1h 28mn
    Bit rate : 1 814 Kbps
    Width : 720 pixels
    Height : 400 pixels
    Display aspect ratio : 16:9
    Frame rate : 25.000 fps
    Resolution : 8 bits
    Colorimetry : 4:2:0
    Scan type : Progressive
    Bits/(Pixel*Frame) : 0.252
    Stream size : 1.12 GiB (82%)
    Writing library : XviD 1.2.1 (UTC 2008-12-04)
    ID : 1
    Format : AC-3
    Format/Info : Audio Coding 3
    Codec ID : 2000
    Duration : 1h 28mn
    Bit rate mode : Constant
    Bit rate : 384 Kbps
    Channel(s) : 6 channels
    Channel positions : Front: L C R, Surround: L R, LFE
    Sampling rate : 48.0 KHz
    Stream size : 243 MiB (17%)
    Alignment : Split accross interleaves
    Interleave, duration : 40 ms (1.00 video frame)
    Interleave, preload duration : 500 ms

    Скриншот c названием фильма


    Download .torrent

    Download free and at maximum speed!

    How to Download? · What is a torrent? · Ratings and Limitations

    The site does not extend and does not store electronic(digital) versions of products, and only gives access to a reference catalogue created by users on torrent-files which contain only lists of the hash-sums, the earnest entreaty, with complaints(abuse) to access directly to the user. Files for an exchange on tracker are given by users of a site, and the administration does not bear the responsibility for their maintenance. The request to not fill in the files protected by copyrights, and also files of the illegal maintenance!

    [Profile] [PM]
    Display posts from previous:    
    Reply to topic

    The time now is: Today 13:33

    All times are GMT + 3 Hours

    You cannot post new topics in this forum
    You cannot reply to topics in this forum
    You cannot edit your posts in this forum
    You cannot delete your posts in this forum
    You cannot vote in polls in this forum
    You cannot attach files in this forum
    You cannot download files in this forum