BitTorrentTracker PerecTracker.org
BitTorrentTracker PerecTracker.org
    
Регистрация  ·  Вход
 
 · 
Забыли пароль?

  • Люди Икс: Начало. Росомаха / X-Men Origins: Wolverine (Гэвин Худ / Gavin Hood) [2009, США, фантастика, боевик, триллер, приключения, HDTV 1080i] Dub + Eng + Sub Rus + Sub Eng

    Ответить на тему
     
    Автор Сообщение

    Flirldrerve

    Создавать темы 26-Авг-2015 17:05

           

    [Цитировать]

    Люди Икс: Начало. Росомаха / X-Men Origins: Wolverine
    Страна: США
    Жанр: фантастика, боевик, триллер, приключения
    Год выпуска: 2009
    Продолжительность: 01:38:21
    Перевод: Профессиональный (дублированный)
    Cубтитры: русский, английский
    Оригинальная аудиодорожка: английский
    Режиссер: Гэвин Худ / Gavin Hood
    В ролях: Хью Джекман, Лив Шрайбер, Дэнни Хьюстон, Уилл Ай Эм, Линн Коллинз, Кевин Дюран, Доминик Монаган, Тейлор Китч, Дэниэл Хенни, Райан Рейнольдс, Тим Пакок, Джулия Блейк, Макс Каллен, Трой Сиван, Майкл-Джеймс Олсен, Питер О’Брайэн, Аарон Джеффри, Элис Паркинсон, Филип Паттерсон, Энтони Ги, Эделейд Клеменс, Карл Битти, Том О’Салливан, Майлс Поллард, Стефен Андертон, Крис Садринна, Септимус Катон, Мэттью Дэйл, Натин Батлер, Питер Бэрри, Дэвид Ричи, Ашер Кедди, Сократис
    Описание: Фильм рассказывает о неистовом и романтичном прошлом Росомахи, его сложных отношениях с Виктором Кридом и о зловещей программе Оружие Х. При этом Росомаха встречается со многими мутантами, уже знакомыми и новыми, и узнает несколько легенд о мире Людей Икс.
    Доп. информация: Из видеоряда удалены все послерекламные вставки. Аудиодорожки к сожалению не полные - пришлось порезать из-за укороченных финальных титров, т.к. во время и после титров идут еще сцены. HDTV имеет иное наполнение кадра, чем BD:

    Сравнение с BD

    BD.................................HDTV


    Сэмпл: http://multi-up.com/1063919
    Тип релиза: HDTV 1080i
    Контейнер: mkv
    Видео: AVC, 1920x1080 (16/9), 25.000 fps, 11.9 Mbps (0.230 bit/pixel)
    Аудио: AC-3, 48.0 KHz, 6 ch, 448 Kbps, CBR (Russian)
    Аудио: AC-3, 48.0 KHz, 6 ch, 448 Kbps, CBR (English)

    MediaInfo

    Общее
    Уникальный идентификатор : 172866926869383749513831269832171480952 (0x820CF5869B7849E2A2EA1F9BC3986778)
    Полное имя : K:\МОИ РАЗДАЧИ\Люди Икс - Начало. Росомаха.mkv
    Формат : Matroska
    Версия формата : Version 2
    Размер файла : 9,21 Гбайт
    Продолжительность : 1 ч. 38 м.
    Общий поток : 13,4 Мбит/сек
    Дата кодирования : UTC 2015-08-26 11:28:11
    Программа кодирования : mkvmerge v8.2.0 ('World of Adventure') 64bit
    Библиотека кодирования : libebml v1.3.1 + libmatroska v1.4.2
    Видео
    Идентификатор : 1
    Формат : AVC
    Формат/Информация : Advanced Video Codec
    Профиль формата : Main@L4
    Параметр CABAC формата : Да
    Параметр ReFrames формата : 3 кадра
    Идентификатор кодека : V_MPEG4/ISO/AVC
    Битрейт : 12,2 Мбит/сек
    Ширина : 1920 пикселей
    Высота : 1080 пикселей
    Соотношение сторон : 16:9
    Режим частоты кадров : Переменный
    Частота кадров в оригинале : 25,000 кадров/сек
    Стандарт вещания : Component
    Цветовое пространство : YUV
    Субдискретизация насыщенности : 4:2:0
    Битовая глубина : 8 бит
    Тип развёртки : Чересстрочная
    Порядок развёртки : Верхнее поле первое
    Заголовок : Люди Икс: Начало. Росомаха / X-Men Origins: Wolverine (2009)
    Язык : English
    Default : Да
    Forced : Нет
    Цветовой диапазон : Limited
    Основные цвета : BT.709
    Характеристики трансфера : BT.709
    Коэффициенты матрицы : BT.709
    Аудио #1
    Идентификатор : 2
    Формат : AC-3
    Формат/Информация : Audio Coding 3
    Расширение режима : CM (complete main)
    Параметр Endianness формата : Big
    Идентификатор кодека : A_AC3
    Продолжительность : 1 ч. 38 м.
    Вид битрейта : Постоянный
    Битрейт : 448 Кбит/сек
    Каналы : 6 каналов
    Расположение каналов : Front: L C R, Side: L R, LFE
    Частота : 48,0 КГц
    Метод сжатия : С потерями
    Размер потока : 315 Мбайт (3%)
    Заголовок : Профессиональный (полное дублирование)
    Язык : Russian
    Default : Да
    Forced : Нет
    Аудио #2
    Идентификатор : 3
    Формат : AC-3
    Формат/Информация : Audio Coding 3
    Расширение режима : CM (complete main)
    Параметр Endianness формата : Big
    Идентификатор кодека : A_AC3
    Продолжительность : 1 ч. 38 м.
    Вид битрейта : Постоянный
    Битрейт : 448 Кбит/сек
    Каналы : 6 каналов
    Расположение каналов : Front: L C R, Side: L R, LFE
    Частота : 48,0 КГц
    Метод сжатия : С потерями
    Размер потока : 315 Мбайт (3%)
    Язык : English
    Default : Нет
    Forced : Нет
    Текст #1
    Идентификатор : 4
    Формат : UTF-8
    Идентификатор кодека : S_TEXT/UTF8
    Идентификатор кодека/Информация : UTF-8 Plain Text
    Заголовок : Blu-Ray
    Язык : Russian
    Default : Нет
    Forced : Нет
    Текст #2
    Идентификатор : 5
    Формат : UTF-8
    Идентификатор кодека : S_TEXT/UTF8
    Идентификатор кодека/Информация : UTF-8 Plain Text
    Заголовок : DVD
    Язык : Russian
    Default : Нет
    Forced : Нет
    Текст #3
    Идентификатор : 6
    Формат : UTF-8
    Идентификатор кодека : S_TEXT/UTF8
    Идентификатор кодека/Информация : UTF-8 Plain Text
    Язык : English
    Default : Нет
    Forced : Нет

    Скриншоты

    Торрент перезалит 26.08.15 - добавлена оригинальная дорожка и субтитры, русская дорожка 2.0 заменена на 5.1, перепаковано в mkv
    Скачать .torrent

    Скачать торрент-файл бесплатно и на максимальной скорости!

    Как скачивать? · Что такое торрент? · Рейтинг и ограничения

    !ВНИМАНИЕ!
    Сайт не распространяет и не хранит электронные версии произведений, а занимается лишь лишь предоставлением доступа к создаваемому пользователями каталогу ссылок на торрент-файлы, которые содержат только списки хеш-сумм, убедительная просьба с жалобами обращаться напрямую к пользователю. Файлы для обмена на трекере предоставлены пользователями сайта, и администрация не несёт ответственности за их содержание. Просьба не заливать файлы, защищенные авторскими правами, а также файлы нелегального содержания!


    _________________
    [Профиль] [ЛС]
    Показать сообщения:    
    Ответить на тему

    Текущее время: Сегодня, в 11:55

    Часовой пояс: GMT + 2



    Вы не можете начинать темы
    Вы не можете отвечать на сообщения
    Вы не можете редактировать свои сообщения
    Вы не можете удалять свои сообщения
    Вы не можете голосовать в опросах
    Вы не можете прикреплять файлы к сообщениям
    Вы не можете скачивать файлы