BitTorrentTracker PerecTracker.org
BitTorrentTracker PerecTracker.org
    
Регистрация  ·  Вход
 
 · 
Забыли пароль?

  • Частоты любви / OXV: The Manual (Даррен Фишер / Darren Fisher) [2013, Австралия, Великобритания, фантастика, драма, мелодрама, HDRip] MVO

    Ответить на тему
     
    Автор Сообщение

    Light

    Создавать темы 26-Авг-2015 04:29

           

    [Цитировать]

    Частоты любви / OXV: The Manual
    Страна: Австралия, Великобритания
    Жанр: фантастика, драма, мелодрама
    Год выпуска: 2013
    Продолжительность: 01:49:17
    Перевод: Профессиональный (многоголосый закадровый)
    Cубтитры: нет
    Оригинальная аудиодорожка: нет
    Режиссер: Даррен Фишер / Darren Fisher
    В ролях: Дэниэл Фрайзер, Элинор Уайлд, Дилан Ллевелин, Джорджина Минтер-Браун, Оуэн Паг, Дэвид Бротон Дейвис, Дэвид Барнеби, Тимоти Блок, Риа Кэрролл, Том Инглэнд
    Описание: Не слишком отдаленное будущее. Детей оценивают не только по интеллекту, но и по фреквенции — особой характеристике, показывающей резонанс ребенка с судьбой. Высокая фреквенция — и ты никогда не опоздаешь на поезд, даже если специально выйдешь на час позже. А по пути еще найдешь банкноту в 20 фунтов. Низкая — и все трудности этого мира словно собираются против тебя одного. Даже просто прийти на экзамен вовремя — большая проблема.
    А что, если парень с супернизкой фреквенцией встретит девушку с супервысокой? Что, если законы вселенной устроены так, что они не могут быть рядом больше одной минуты? Главный герой находит способ изменить свою фреквенцию, чтобы увеличить этот лимит, но обнаруживает весьма странный побочный эффект…
    Сэмпл: http://sendfile.su/1148877
    Качество видео: HDRip
    Формат видео: AVI
    Видео: XviD; 688x384 (16:9); 1743 Kbps; 23,976 fps; 0,275 bpp
    Аудио: AC3; 48 kHz; 192 Kbps; CBR; 2 ch

    MediaInfo

    Общее
    Полное имя : G:\FTP_3TB\Video\Фантастика\Частоты любви [OXV The Manual] (2013)\Chastoty.2013_HDRip__[scarabey.org].avi
    Формат : AVI
    Формат/Информация : Audio Video Interleave
    Размер файла : 1,48 Гбайт
    Продолжительность : 1 ч. 49 м.
    Общий поток : 1945 Кбит/сек
    Программа кодирования : VirtualDubMod 1.5.10.3 | www.virtualdub-fr.org || (build 2550/release)
    Библиотека кодирования : VirtualDubMod build 2550/release
    Видео
    Идентификатор : 0
    Формат : MPEG-4 Visual
    Профиль формата : Advanced Simple@L5
    Параметр BVOP формата : 1
    Параметр QPel формата : Нет
    Параметр GMC формата : Без точки перехода
    Параметр матрицы формата : Выборочная
    Идентификатор кодека : XVID
    Идентификатор кодека/Подсказка : XviD
    Продолжительность : 1 ч. 49 м.
    Битрейт : 1743 Кбит/сек
    Ширина : 688 пикселей
    Высота : 384 пикселя
    Соотношение сторон : 16:9
    Частота кадров : 23,976 кадра/сек
    Цветовое пространство : YUV
    Субдискретизация насыщенности : 4:2:0
    Битовая глубина : 8 бит
    Тип развёртки : Прогрессивная
    Метод сжатия : С потерями
    Бит/(Пиксели*Кадры) : 0.275
    Размер потока : 1,33 Гбайт (90%)
    Библиотека кодирования : XviD 73
    Аудио
    Идентификатор : 1
    Формат : AC-3
    Формат/Информация : Audio Coding 3
    Расширение режима : CM (complete main)
    Параметр Endianness формата : Big
    Идентификатор кодека : 2000
    Продолжительность : 1 ч. 49 м.
    Вид битрейта : Постоянный
    Битрейт : 192 Кбит/сек
    Каналы : 2 канала
    Расположение каналов : Front: L R
    Частота : 48,0 КГц
    Битовая глубина : 16 бит
    Метод сжатия : С потерями
    Размер потока : 150 Мбайт (10%)
    Выравнивание : Разделение по промежуткам
    Продолжительность промежутка : 42 мс. (1,00 видеокадр)
    Время предзагрузки промежутка : 500 мс.

    Скриншот c названием фильма

    Скриншоты

    Скачать .torrent

    Скачать торрент-файл бесплатно и на максимальной скорости!

    Как скачивать? · Что такое торрент? · Рейтинг и ограничения

    !ВНИМАНИЕ!
    Сайт не распространяет и не хранит электронные версии произведений, а занимается лишь лишь предоставлением доступа к создаваемому пользователями каталогу ссылок на торрент-файлы, которые содержат только списки хеш-сумм, убедительная просьба с жалобами обращаться напрямую к пользователю. Файлы для обмена на трекере предоставлены пользователями сайта, и администрация не несёт ответственности за их содержание. Просьба не заливать файлы, защищенные авторскими правами, а также файлы нелегального содержания!


    _________________
    [Профиль] [ЛС]
    Показать сообщения:    
    Ответить на тему

    Текущее время: Сегодня, в 22:21

    Часовой пояс: GMT + 2



    Вы не можете начинать темы
    Вы не можете отвечать на сообщения
    Вы не можете редактировать свои сообщения
    Вы не можете удалять свои сообщения
    Вы не можете голосовать в опросах
    Вы не можете прикреплять файлы к сообщениям
    Вы не можете скачивать файлы