BitTorrentTracker PerecTracker.org
BitTorrentTracker PerecTracker.org
    
Регистрация  ·  Вход
 
 · 
Забыли пароль?

  • [ATV3] Темные тайны / Dark Places (Жиль Паке-Бреннер / Gilles Paquet-Brenner ) [2015, США, Триллер, драма, детектив, BDRip, HD (1080p)] VO + Original + sub (rus, eng)

    Ответить на тему
     
    Автор Сообщение

    rechyn

    Создавать темы 25-Авг-2015 15:53

           

    [Цитировать]

    Темные тайны / Dark Places
    «In 1985, her entire family was murdered. 30 years later, the truth emerges»
    6.270 / 10 6.30 / 10
    -Год выпуска: 2015
    Страна: США
    Жанр: Триллер, драма, детектив
    Продолжительность: 01:52:29
    Перевод: Одноголосый закадровый ( А.Матвеев)
    Оригинальная аудиодорожка: Есть
    Cубтитры: Русские, Английские
    Режиссёр: Жиль Паке-Бреннер
    Сценарий: Жиль Паке-Бреннер, Гиллиан Флинн
    Продюсер: Принц Азим, А.Дж. Дикс, Мэтт Джексон
    Оператор: Бэрри Экройд
    Композитор: Брайан Трансо, Грегори Трипи
    Художник: Лоуренс Беннетт, Дэниэл Турк, Эйприл Напье
    Монтаж: Дуглас Крайс, Билли Фокс
    В ролях: Шарлиз Терон, Стерлинг Джеринс, Николас Холт, Кристина Хендрикс, Кори Столл, Тай Шеридан, Андреа Рот, Хлоя Грейс Морец, Шон Бриджерс, Дж. ЛаРоуз
    Мировая премьера: 31 марта 2015
    Премьера (РФ): 10 сентября 2015, «West»
    Описание: Двадцать четыре года назад Либби Дэй пережила страшную трагедию : ночью убили ее мать и двух сестер, в преступлении признается виновным ее старший брат — Бэн Дэй, вина которого не была доказана полностью. Спустя время Либби Дэй решает возобновить расследование и узнать все, что произошло в ту роковую ночь. Готова ли она пережить этот кошмар вновь? На что она готова пойти ради правды? И какие ужасы хранят в себе эти темные тайны?-Качество исходника: BDRemux (HDClub)
    Качество: BDRip
    Тип: HD (1080p)
    Контейнер: M4V
    Видео: H.264, 1920x800, 2.40:1, 8 000 Kbps, 23.976 fps
    Аудио 1: Русский/Одноголосый закадровый ( А.Матвеев), AAC / 2.0 / 157 Kbps / 48.0 KHz
    Аудио 2: Английский/Оригинальная дорожка , AAC / 2.0 / 157 Kbps / 48.0 KHz
    Аудио 3: Русский/Одноголосый закадровый ( А.Матвеев), AC-3 / 5.1 / 640 Kbps / 48.0 KHz
    Аудио 4: Английский/Оригинальная дорожка , AC-3 / 5.1 / 640 Kbps / 48.0 KHz
    Субтитры 1: Русские полные
    Субтитры 2: Английские полные
    -

    iTunes Meta Tags

    Sort Name: Dark Places
    XID: Apple:vendor_id:2015-681657
    contentID: 1011676604
    Copyright: © 2015 Damselfish Holdings, LLC
    Screenwriters: Жиль Паке-Бреннер, Гиллиан Флинн
    Producers: А.Дж. Дикс, Мэтт Джексон, Бет Коно
    Director: Жиль Паке-Бреннер
    Cast: Шарлиз Терон, Стерлинг Джеринс, Николас Холт, Кристина Хендрикс, Кори Столл, Тай Шеридан, Андреа Рот, Хлоя Грейс Морец, Шон Бриджерс, Дж. ЛаРоуз
    Studio: A24
    Rating: 11
    Long Description: Двадцать четыре года назад Либби Дэй пережила страшную трагедию : ночью убили ее мать и двух сестер, в преступлении признается виновным ее старший брат - Бэн Дэй, вина которого не была доказана полностью. Спустя время Либби Дэй решает возобновить расследование и узнать все, что произошло в ту роковую ночь. Готова ли она пережить этот кошмар вновь? На что она готова пойти ради правды? И какие ужасы хранят в себе эти темные тайны?
    Description: Двадцать четыре года назад Либби Дэй пережила страшную трагедию : ночью убили ее мать и двух сестер, в преступлении признается виновным ее старший брат - Бэн Дэй, вина которого не была доказана полностью. Спустя время Либби Дэй решает возобновить расследование и узнать все, что произошло в ту роковую ночь.
    Release Date: 2015-03-31T08:00:00Z
    Genre: Thriller
    Artist: Gilles Paquet-Brenner
    Name: Dark Places

    MediaInfo

    General
    Complete name                            : /Users/imac/HandBrake/Dark Places (1080p HD).m4v
    Format                                   : MPEG-4
    Codec ID                                 : M4V
    File size                                : 7.53 GiB
    Duration                                 : 1h 52mn
    Overall bit rate mode                    : Variable
    Overall bit rate                         : 9 587 Kbps
    Movie name                               : Dark Places
    Performer                                : Gilles Paquet-Brenner
    Genre                                    : Thriller
    Recorded date                            : UTC 2015-03-31 08:00:00
    Encoded date                             : UTC 2015-08-25 10:55:29
    Tagged date                              : UTC 2015-08-25 10:57:15
    Copyright                                : © 2015 Damselfish Holdings, LLC
    Cover                                    : Yes
    sonm                                     : Dark Places
    desc                                     : Двадцать четыре года назад Либби Дэй пережила страшную трагедию : ночью убили ее мать и двух сестер, в преступлении признается виновным ее старший брат - Бэн Дэй, вина которого не была доказана полностью. Спустя время Либби Дэй решает возобновить расследование и узнать все, что произошло в ту роковую ночь.
    ldes                                     : Двадцать четыре года назад Либби Дэй пережила страшную трагедию : ночью убили ее мать и двух сестер, в преступлении признается виновным ее старший брат - Бэн Дэй, вина которого не была доказана полностью. Спустя время Либби Дэй решает возобновить расследование и узнать все, что произошло в ту роковую ночь. Готова ли она пережить этот кошмар вновь? На что она готова пойти ради правды? И какие ужасы хранят в себе эти темные тайны?
    hdvd                                     : 2
    stik                                     : 9
    rtng                                     : 0
    cnID                                     : 1011676604
    xid                                      : Apple:vendor_id:2015-681657
    iTunEXTC                                 : mpaa|R|400|
    iTunMOVI                                 : <?xml version=\"1.0\" encoding=\"UTF-8\"?> / <!DOCTYPE plist PUBLIC \"-//Apple//DTD PLIST 1.0//EN\" \"http://anonym.to/?http://www.apple.com/DTDs/PropertyList-1.0.dtd\"> / <plist version=\"1.0\"> / <dict> /  <key>cast</key> /  <array> /   <dict> /    <key>name</key> /    <string>Шарлиз Терон</string> /   </dict> /   <dict> /    <key>name</key> /    <string>Стерлинг Джеринс</string> /   </dict> /   <dict> /    <key>name</key> /    <string>Николас Холт</string> /   </dict> /   <dict> /    <key>name</key> /    <string>Кристина Хендрикс</string> /   </dict> /   <dict> /    <key>name</key> /    <string>Кори Столл</string> /   </dict> /   <dict> /    <key>name</key> /    <string>Тай Шеридан</string> /   </dict> /   <dict> /    <key>name</key> /    <string>Андреа Рот</string> /   </dict> /   <dict> /    <key>name</key> /    <string>Хлоя Грейс Морец</string> /   </dict> /   <dict> /    <key>name</key> /    <string>Шон Бриджерс</string> /   </dict> /   <dict> /    <key>name</key> /    <string>Дж. ЛаРоуз</string> /   </dict> /  </array> /  <key>directors</key> /  <array> /   <dict> /    <key>name</key> /    <string>Жиль Паке-Бреннер</string> /   </dict> /  </array> /  <key>producers</key> /  <array> /   <dict> /    <key>name</key> /    <string>А.Дж. Дикс</string> /   </dict> /   <dict> /    <key>name</key> /    <string>Мэтт Джексон</string> /   </dict> /   <dict> /    <key>name</key> /    <string>Бет Коно</string> /   </dict> /  </array> /  <key>screenwriters</key> /  <array> /   <dict> /    <key>name</key> /    <string>Жиль Паке-Бреннер</string> /   </dict> /   <dict> /    <key>name</key> /    <string>Гиллиан Флинн</string> /   </dict> /  </array> /  <key>studio</key> /  <string>A24</string> / </dict> / </plist>
    Video #1
    ID                                       : 1
    Format                                   : AVC
    Format/Info                              : Advanced Video Codec
    Format profile                           : High@L4.0
    Format settings, CABAC                   : Yes
    Format settings, ReFrames                : 4 frames
    Codec ID                                 : avc1
    Codec ID/Info                            : Advanced Video Coding
    Duration                                 : 1h 52mn
    Bit rate mode                            : Variable
    Bit rate                                 : 8 000 Kbps
    Width                                    : 1 920 pixels
    Height                                   : 800 pixels
    Display aspect ratio                     : 2.40:1
    Frame rate mode                          : Variable
    Frame rate                               : 23.976 fps
    Minimum frame rate                       : 23.974 fps
    Maximum frame rate                       : 23.981 fps
    Color space                              : YUV
    Chroma subsampling                       : 4:2:0
    Bit depth                                : 8 bits
    Scan type                                : Progressive
    Bits/(Pixel*Frame)                       : 0.217
    Stream size                              : 6.27 GiB (83%)
    Writing library                          : x264 core 142 r2479 dd79a61
    Encoding settings                        : cabac=1 / ref=4 / deblock=1:-2:-2 / analyse=0x3:0x133 / me=umh / subme=10 / psy=1 / psy_rd=1.00:0.15 / mixed_ref=1 / me_range=32 / chroma_me=1 / trellis=2 / 8x8dct=1 / cqm=0 / deadzone=21,11 / fast_pskip=0 / chroma_qp_offset=-3 / threads=36 / lookahead_threads=6 / sliced_threads=0 / nr=0 / decimate=0 / interlaced=0 / bluray_compat=0 / constrained_intra=0 / bframes=16 / b_pyramid=2 / b_adapt=2 / b_bias=0 / direct=3 / weightb=1 / open_gop=0 / weightp=2 / keyint=240 / keyint_min=24 / scenecut=40 / intra_refresh=0 / rc_lookahead=60 / rc=2pass / mbtree=1 / bitrate=8000 / ratetol=1.0 / qcomp=0.70 / qpmin=0 / qpmax=69 / qpstep=4 / cplxblur=20.0 / qblur=0.5 / vbv_maxrate=25000 / vbv_bufsize=25000 / nal_hrd=none / filler=0 / ip_ratio=1.40 / aq=1:1.00
    Language                                 : English
    Encoded date                             : UTC 2015-08-25 10:55:29
    Tagged date                              : UTC 2015-08-25 10:55:47
    Color primaries                          : BT.709-5, BT.1361, IEC 61966-2-4, SMPTE RP177
    Transfer characteristics                 : BT.709-5, BT.1361
    Matrix coefficients                      : BT.709-5, BT.1361, IEC 61966-2-4 709, SMPTE RP177
    Video #2
    ID                                       : 9
    Format                                   : JPEG
    Codec ID                                 : jpeg
    Duration                                 : 1h 52mn
    Bit rate mode                            : Variable
    Bit rate                                 : 365 bps
    Width                                    : 640 pixels
    Height                                   : 266 pixels
    Display aspect ratio                     : 2.40:1
    Frame rate mode                          : Variable
    Frame rate                               : 0.002 fps
    Minimum frame rate                       : 0.001 fps
    Maximum frame rate                       : 0.003 fps
    Color space                              : YUV
    Chroma subsampling                       : 4:2:0
    Bit depth                                : 8 bits
    Compression mode                         : Lossy
    Bits/(Pixel*Frame)                       : 1.072
    Stream size                              : 268 KiB (0%)
    Language                                 : English
    Encoded date                             : UTC 2015-08-25 10:55:56
    Tagged date                              : UTC 2015-08-25 10:55:57
    Audio #1
    ID                                       : 2
    Format                                   : AAC
    Format/Info                              : Advanced Audio Codec
    Format profile                           : LC
    Codec ID                                 : 40
    Duration                                 : 1h 52mn
    Bit rate mode                            : Variable
    Bit rate                                 : 157 Kbps
    Maximum bit rate                         : 244 Kbps
    Channel(s)                               : 2 channels
    Channel positions                        : Front: L R
    Sampling rate                            : 48.0 KHz
    Compression mode                         : Lossy
    Stream size                              : 126 MiB (2%)
    Language                                 : Russian
    Encoded date                             : UTC 2015-08-25 10:55:29
    Tagged date                              : UTC 2015-08-25 10:55:39
    Audio #2
    ID                                       : 3
    Format                                   : AAC
    Format/Info                              : Advanced Audio Codec
    Format profile                           : LC
    Codec ID                                 : 40
    Duration                                 : 1h 52mn
    Bit rate mode                            : Variable
    Bit rate                                 : 157 Kbps
    Maximum bit rate                         : 238 Kbps
    Channel(s)                               : 2 channels
    Channel positions                        : Front: L R
    Sampling rate                            : 48.0 KHz
    Compression mode                         : Lossy
    Stream size                              : 127 MiB (2%)
    Language                                 : English
    Encoded date                             : UTC 2015-08-25 10:55:29
    Tagged date                              : UTC 2015-08-25 10:55:39
    Audio #3
    ID                                       : 4
    Format                                   : AC-3
    Format/Info                              : Audio Coding 3
    Mode extension                           : CM (complete main)
    Format settings, Endianness              : Big
    Codec ID                                 : ac-3
    Duration                                 : 1h 52mn
    Bit rate mode                            : Constant
    Bit rate                                 : 640 Kbps
    Channel(s)                               : 6 channels
    Channel positions                        : Front: L C R, Side: L R, LFE
    Sampling rate                            : 48.0 KHz
    Bit depth                                : 16 bits
    Compression mode                         : Lossy
    Stream size                              : 515 MiB (7%)
    Language                                 : Russian
    Encoded date                             : UTC 2015-08-25 10:55:29
    Tagged date                              : UTC 2015-08-25 10:55:37
    Audio #4
    ID                                       : 5
    Format                                   : AC-3
    Format/Info                              : Audio Coding 3
    Mode extension                           : CM (complete main)
    Format settings, Endianness              : Big
    Codec ID                                 : ac-3
    Duration                                 : 1h 52mn
    Bit rate mode                            : Constant
    Bit rate                                 : 640 Kbps
    Channel(s)                               : 6 channels
    Channel positions                        : Front: L C R, Side: L R, LFE
    Sampling rate                            : 48.0 KHz
    Bit depth                                : 16 bits
    Compression mode                         : Lossy
    Stream size                              : 515 MiB (7%)
    Language                                 : English
    Encoded date                             : UTC 2015-08-25 10:55:29
    Tagged date                              : UTC 2015-08-25 10:55:37
    Text #1
    ID                                       : 6
    Format                                   : Timed text
    Muxing mode                              : sbtl
    Codec ID                                 : tx3g
    Duration                                 : 1h 46mn
    Bit rate mode                            : Variable
    Bit rate                                 : 97 bps
    Stream size                              : 75.6 KiB (0%)
    Language                                 : Russian
    Encoded date                             : UTC 2015-08-25 10:55:29
    Tagged date                              : UTC 2015-08-25 10:55:29
    Text #2
    ID                                       : 7
    Format                                   : Timed text
    Muxing mode                              : sbtl
    Codec ID                                 : tx3g
    Duration                                 : 1h 46mn
    Bit rate mode                            : Variable
    Bit rate                                 : 67 bps
    Stream size                              : 52.4 KiB (0%)
    Language                                 : English
    Encoded date                             : UTC 2015-08-25 10:55:29
    Tagged date                              : UTC 2015-08-25 10:55:29
    Text #3
    ID                                       : 8
    Format                                   : Apple text
    Codec ID                                 : text
    Duration                                 : 1h 52mn
    Bit rate mode                            : Constant
    Bit rate                                 : 0 bps
    Stream size                              : 312 Bytes (0%)
    Language                                 : English
    Encoded date                             : UTC 2015-08-25 10:55:47
    Tagged date                              : UTC 2015-08-25 10:55:47
    Menu
    00:00:00.000                             : 00:00:00.000
    00:10:26.375                             : 00:10:26.375
    00:17:56.333                             : 00:17:56.333
    00:30:34.458                             : 00:30:34.458
    00:41:12.208                             : 00:41:12.208
    00:49:07.667                             : 00:49:07.667
    00:59:29.583                             : 00:59:29.583
    01:10:55.792                             : 01:10:55.792
    01:18:01.458                             : 01:18:01.458
    01:29:52.875                             : 01:29:52.875
    01:38:44.542                             : 01:38:44.542
    01:46:12.000                             : 01:46:12.000

    x264 лог

    x264 [info]: frame I:947   Avg QP:14.89  size:155037
    x264 [info]: frame P:31533 Avg QP:17.65  size: 62920
    x264 [info]: frame B:129354 Avg QP:18.36  size: 35600
    x264 [info]: consecutive B-frames:  1.8%  2.4%  5.6%  8.9%  8.5% 58.7%  5.0%  0.6%  1.4%  1.8%  1.1%  0.7%  0.7%  1.5%  0.2%  0.3%  0.8%
    x264 [info]: mb I  I16..4: 24.9% 59.4% 15.7%
    x264 [info]: mb P  I16..4:  6.9% 14.8%  1.5%  P16..4: 41.3% 16.2% 10.1%  0.1%  0.0%    skip: 8.9%
    x264 [info]: mb B  I16..4:  0.8%  2.1%  0.1%  B16..8: 45.7% 10.5%  2.4%  direct: 9.2%  skip:29.3%  L0:48.1% L1:44.6% BI: 7.3%
    x264 [info]: 8x8 transform intra:65.5% inter:53.4%
    x264 [info]: direct mvs  spatial:98.0% temporal:2.0%
    x264 [info]: coded y,uvDC,uvAC intra: 85.0% 58.3% 39.4% inter: 38.1% 21.9% 5.8%
    x264 [info]: i16 v,h,dc,p: 25% 11% 44% 21%
    x264 [info]: i8 v,h,dc,ddl,ddr,vr,hd,vl,hu:  8%  7% 18% 10% 12% 12% 11% 11% 11%
    x264 [info]: i4 v,h,dc,ddl,ddr,vr,hd,vl,hu: 12%  9% 20%  8% 11% 10% 10%  9% 11%
    x264 [info]: i8c dc,h,v,p: 59% 18% 15%  9%
    x264 [info]: Weighted P-Frames: Y:3.3% UV:1.6%
    x264 [info]: ref P L0: 52.4%  7.8% 25.2% 13.4%  1.1%  0.1%
    x264 [info]: ref B L0: 81.5% 15.1%  3.3%
    x264 [info]: ref B L1: 89.0% 11.0%
    x264 [info]: kb/s:7983.49

    Скриншоты

    -

    Релиз подготовлен для просмотра на Apple TV, iPad, iPhone, iPod Touch.
    Для просмотра данного релиза на компьютере с ОС Windows рекомендуется использовать VLC media player
    Скачать .torrent

    Скачать торрент-файл бесплатно и на максимальной скорости!

    Как скачивать? · Что такое торрент? · Рейтинг и ограничения

    !ВНИМАНИЕ!
    Сайт не распространяет и не хранит электронные версии произведений, а занимается лишь лишь предоставлением доступа к создаваемому пользователями каталогу ссылок на торрент-файлы, которые содержат только списки хеш-сумм, убедительная просьба с жалобами обращаться напрямую к пользователю. Файлы для обмена на трекере предоставлены пользователями сайта, и администрация не несёт ответственности за их содержание. Просьба не заливать файлы, защищенные авторскими правами, а также файлы нелегального содержания!


    _________________
    [Профиль] [ЛС]
    Показать сообщения:    
    Ответить на тему

    Текущее время: Сегодня, в 16:32

    Часовой пояс: GMT + 2



    Вы не можете начинать темы
    Вы не можете отвечать на сообщения
    Вы не можете редактировать свои сообщения
    Вы не можете удалять свои сообщения
    Вы не можете голосовать в опросах
    Вы не можете прикреплять файлы к сообщениям
    Вы не можете скачивать файлы