BitTorrentTracker PerecTracker.org
BitTorrentTracker PerecTracker.org
    
Регистрация  ·  Вход
 
 · 
Забыли пароль?

  • Новая Москва (Александр Медведкин) [1938, Комедия, SATRip-AVC]

    Ответить на тему
     
    Автор Сообщение

    Light

    Создавать темы 25-Авг-2015 11:41

           

    [Цитировать]

    -Новая Москва-Жанр: Комедия
    Год выпуска: 1938
    Продолжительность: 01:17:20-Режиссёр: Александр Медведкин-В ролях: Даниил Сагал, Нина Алисова, Мария Барабанова, Мария Блюменталь-Тамарина, Павел Суханов, Владимир Яворский, Александр Граве, Лидия Смирнова, Елена Ануфриева-Описание: О приключениях молодого инженера-москвича, работающего на стройке в Сибири, который привез на московскую выставку необычный макет реконструкции столицы. В поезде он встречает свою любовь – Зою.-Доп. информация:

    Производство: Киностудия "Мосфильм", СССР, 1938 г.
    Cценарий: Александр Медведкин
    Оператор: Игорь Гелейн
    Композитор: Владимир Юровский
    Художник: Валентин Кадочников
    Монтаж: Татьяна Лихачева
    Возраст: 12+-Семпл: https://yadi.sk/i/WKi_LfUlicp6P-Качество видео: SATRip-AVC
    Формат видео: MKV
    Видео кодек: H.264
    Аудио кодек: AC3
    Видео: 720x544 (1.32:1), 25 fps, ~2328 kbps
    Аудио: 48 kHz, AC3 Dolby Digital, 2/0 (L,R) ch, ~192 kbps-

    Иван Дыховичный о фильме (Газета "Известия" (130000), №190, 13 октября 2006):

    "Я очень советую посмотреть фильм "Новая Москва" - это картина выдающегося, великого русского режиссера Александра Медведкина. Не стану в своей короткой рецензии говорить о том, почему Медведкин - великий режиссер. Просто поверьте, что это так. Медведкин снял всего несколько картин (кстати, он первый в СССР снял цветное кино) - он был в опале просто в силу своей одаренности, а не в силу каких-то политических взглядов. Это был человек, который безмерно любил это пространство, этот город, эту страну.
    Картина, которую вы увидите, уникальна. В этом фильме предлагается некое архитектурное будущее Москвы. Будущее это не понравилось Сталину, и он картину запретил. Но сейчас у нас есть возможность посмотреть эту любопытнейшую ленту. К тому же там играют Даниил Сигал, знаменитый по тем временам человек, Нина Алисова, которая играла в "Бесприданнице", и так далее, один актер лучше другого".

    -

    MediaInfo

    General
    Unique ID : 180356472451657428386813582263393470711 (0x87AF64A1EE5140ACB4FF60A98E6848F7)
    Complete name : C:\Torrent\Новая Москва.1938.SATRip-AVC by Dmitrio7197\Новая Москва.1938.SATRip-AVC by Dmitrio7197.mkv
    Format : Matroska
    Format version : Version 2
    File size : 1.36 GiB
    Duration : 1h 17mn
    Overall bit rate : 2 522 Kbps
    Encoded date : UTC 2015-08-24 04:53:33
    Writing application : mkvmerge v6.1.0 ('Old Devil') built on Mar 4 2013 09:10:42
    Writing library : libebml v1.3.0 + libmatroska v1.4.0
    Video
    ID : 1
    Format : AVC
    Format/Info : Advanced Video Codec
    Format profile : High@L4.1
    Format settings, CABAC : Yes
    Format settings, ReFrames : 8 frames
    Codec ID : V_MPEG4/ISO/AVC
    Duration : 1h 17mn
    Bit rate : 2 328 Kbps
    Width : 720 pixels
    Height : 544 pixels
    Display aspect ratio : 4:3
    Frame rate mode : Constant
    Frame rate : 25.000 fps
    Color space : YUV
    Chroma subsampling : 4:2:0
    Bit depth : 8 bits
    Scan type : Progressive
    Bits/(Pixel*Frame) : 0.238
    Stream size : 1.23 GiB (90%)
    Writing library : x264 core 130 r2273 b3065e6
    Encoding settings : cabac=1 / ref=8 / deblock=1:0:0 / analyse=0x3:0x113 / me=umh / subme=11 / psy=1 / psy_rd=1.00:0.00 / mixed_ref=1 / me_range=24 / chroma_me=1 / trellis=2 / 8x8dct=1 / cqm=0 / deadzone=21,11 / fast_pskip=1 / chroma_qp_offset=-2 / threads=6 / lookahead_threads=1 / sliced_threads=0 / nr=0 / decimate=0 / interlaced=0 / bluray_compat=0 / constrained_intra=0 / bframes=8 / b_pyramid=2 / b_adapt=1 / b_bias=0 / direct=3 / weightb=1 / open_gop=0 / weightp=2 / keyint=250 / keyint_min=25 / scenecut=40 / intra_refresh=0 / rc_lookahead=40 / rc=2pass / mbtree=1 / bitrate=2328 / ratetol=1.0 / qcomp=0.60 / qpmin=0 / qpmax=69 / qpstep=4 / cplxblur=20.0 / qblur=0.5 / ip_ratio=1.40 / aq=1:1.00
    Default : Yes
    Forced : No
    Audio
    ID : 2
    Format : AC-3
    Format/Info : Audio Coding 3
    Mode extension : CM (complete main)
    Format settings, Endianness : Big
    Codec ID : A_AC3
    Duration : 1h 17mn
    Bit rate mode : Constant
    Bit rate : 192 Kbps
    Channel(s) : 2 channels
    Channel positions : Front: L R
    Sampling rate : 48.0 KHz
    Bit depth : 16 bits
    Compression mode : Lossy
    Stream size : 106 MiB (8%)
    Default : Yes
    Forced : No

    Скриншоты

    -
    Скачать .torrent

    Скачать торрент-файл бесплатно и на максимальной скорости!

    Как скачивать? · Что такое торрент? · Рейтинг и ограничения

    !ВНИМАНИЕ!
    Сайт не распространяет и не хранит электронные версии произведений, а занимается лишь лишь предоставлением доступа к создаваемому пользователями каталогу ссылок на торрент-файлы, которые содержат только списки хеш-сумм, убедительная просьба с жалобами обращаться напрямую к пользователю. Файлы для обмена на трекере предоставлены пользователями сайта, и администрация не несёт ответственности за их содержание. Просьба не заливать файлы, защищенные авторскими правами, а также файлы нелегального содержания!


    _________________
    [Профиль] [ЛС]
    Показать сообщения:    
    Ответить на тему

    Текущее время: Сегодня, в 16:11

    Часовой пояс: GMT + 2



    Вы не можете начинать темы
    Вы не можете отвечать на сообщения
    Вы не можете редактировать свои сообщения
    Вы не можете удалять свои сообщения
    Вы не можете голосовать в опросах
    Вы не можете прикреплять файлы к сообщениям
    Вы не можете скачивать файлы