BitTorrentTracker PerecTracker.org
BitTorrentTracker PerecTracker.org
    
Регистрация  ·  Вход
 
 · 
Забыли пароль?

  • Медальон Хититуйи / Hititya Madalyonun Sirri (Улас Сихан Симсек / Ulas Cihan Simsek, Ченгиз Девечи / Cengiz Deveci) [2013, Турция, фэнтези, приключения, семейный, HDTVRip-AVC] DVO (den904 & DeadSno)

    Ответить на тему
     
    Автор Сообщение

    Light

    Создавать темы 25-Авг-2015 11:41

           

    [Цитировать]

    Медальон Хититуйи / Hititya Madalyonun Sirri

    Страна: Турция
    Жанр: фэнтези, приключения, семейный
    Год выпуска: 2013
    Продолжительность: 01:36:18
    Перевод: Любительский (двухголосый закадровый) den904 & DeadSno
    Режиссер: Улас Сихан Симсек / Ulas Cihan Simsek, Ченгиз Девечи / Cengiz Deveci
    В ролях: Egemen Zincidi, Эмир Берке Зинджиди, Nehir Cagla Yasar, Авни Яльчин, Гюркан Уйгун, Эбру Кюндюбейоглу, Бруно Эйрон, Mustafa Büyükçolak
    Описание: Хититуйя - так называется параллельный мир, куда попадают трое детей в поисках своей матери. Начинается фильм с того, что однажды дети просыпаются, а их мама пропала. Детское чутье приводит их к загадочным символам на стене. После этого, они попадают в темную пещеру, и выйдя из нее, оказываются в другом загадочном мире. Смогут ли дети найти свою маму, спасти ее и вернуться обратно домой?

    Доп. информация: В исходнике присутствовало довольно много рекламных баннеров и анонсов телепередач - все они были замазаны с помощью фильтра DeLogo
    Сэмпл: https://yadi.sk/i/dmkH53EIidre2
    Качество видео: HDTVRip-AVC
    Формат видео: MKV
    Видео: AVC, 1024x480, 2.133:1, 1979 kbps, 25 fps
    Аудио: RUS, AC3, 2.0, 48 kHz, 16 bit, 192 kbps

    MediaInfo

    General
    Unique ID : 226450204612113142576308807992105735750 (0xAA5CB9165D5E33B79A4FA41360039646)
    Complete name : Медальон Хититуйи [2013].mkv
    Format : Matroska
    Format version : Version 4 / Version 2
    File size : 1.46 GiB
    Duration : 1h 36mn
    Overall bit rate : 2 173 Kbps
    Encoded date : UTC 2015-08-24 05:55:20
    Writing application : mkvmerge v8.1.0 ('Psychedelic Postcard') 64bit
    Writing library : libebml v1.3.1 + libmatroska v1.4.2
    DURATION : 01:36:18.112000000
    NUMBER_OF_FRAMES : 180566
    NUMBER_OF_BYTES : 138674688
    _STATISTICS_WRITING_APP : mkvmerge v8.1.0 ('Psychedelic Postcard') 64bit
    _STATISTICS_WRITING_DATE_UTC : 2015-08-24 05:55:20
    _STATISTICS_TAGS : BPS DURATION NUMBER_OF_FRAMES NUMBER_OF_BYTES
    Video
    ID : 1
    Format : AVC
    Format/Info : Advanced Video Codec
    Format profile : High@L4.1
    Format settings, CABAC : Yes
    Format settings, ReFrames : 16 frames
    Codec ID : V_MPEG4/ISO/AVC
    Duration : 1h 36mn
    Bit rate : 1 979 Kbps
    Width : 1 024 pixels
    Height : 480 pixels
    Display aspect ratio : 2.133
    Frame rate mode : Constant
    Frame rate : 25.000 fps
    Color space : YUV
    Chroma subsampling : 4:2:0
    Bit depth : 8 bits
    Scan type : Progressive
    Bits/(Pixel*Frame) : 0.161
    Stream size : 1.30 GiB (89%)
    Writing library : x264 core 130 r2274bm c832fe9
    Encoding settings : cabac=1 / ref=16 / deblock=1:-1:-1 / analyse=0x3:0x133 / me=umh / subme=10 / psy=1 / psy_rd=1.00:0.15 / mixed_ref=1 / me_range=24 / chroma_me=1 / trellis=2 / 8x8dct=1 / cqm=0 / deadzone=21,11 / fast_pskip=1 / chroma_qp_offset=-3 / threads=12 / lookahead_threads=2 / sliced_threads=0 / nr=0 / decimate=1 / interlaced=0 / bluray_compat=0 / constrained_intra=0 / bframes=8 / b_pyramid=2 / b_adapt=2 / b_bias=0 / direct=3 / weightb=1 / open_gop=0 / weightp=2 / keyint=250 / keyint_min=25 / scenecut=40 / intra_refresh=0 / rc_lookahead=60 / rc=2pass / mbtree=1 / bitrate=1979 / ratetol=1.0 / qcomp=0.60 / qpmin=0 / qpmax=69 / qpstep=4 / cplxblur=20.0 / qblur=0.5 / ip_ratio=1.40 / aq=1:1.00
    Language : Turkish
    Default : Yes
    Forced : No
    Audio
    ID : 2
    Format : AC-3
    Format/Info : Audio Coding 3
    Mode extension : CM (complete main)
    Format settings, Endianness : Big
    Codec ID : A_AC3
    Duration : 1h 36mn
    Bit rate mode : Constant
    Bit rate : 192 Kbps
    Channel(s) : 2 channels
    Channel positions : Front: L R
    Sampling rate : 48.0 KHz
    Bit depth : 16 bits
    Compression mode : Lossy
    Stream size : 132 MiB (9%)
    Title : DVO (den904 & DeadSno)
    Language : Russian
    Default : Yes
    Forced : No
    Text
    ID : 3
    Format : UTF-8
    Codec ID : S_TEXT/UTF8
    Codec ID/Info : UTF-8 Plain Text
    Title : Forced
    Language : Russian
    Default : Yes
    Forced : Yes

    Скриншот c названием фильма

    Скриншоты

    Скачать .torrent

    Скачать торрент-файл бесплатно и на максимальной скорости!

    Как скачивать? · Что такое торрент? · Рейтинг и ограничения

    !ВНИМАНИЕ!
    Сайт не распространяет и не хранит электронные версии произведений, а занимается лишь лишь предоставлением доступа к создаваемому пользователями каталогу ссылок на торрент-файлы, которые содержат только списки хеш-сумм, убедительная просьба с жалобами обращаться напрямую к пользователю. Файлы для обмена на трекере предоставлены пользователями сайта, и администрация не несёт ответственности за их содержание. Просьба не заливать файлы, защищенные авторскими правами, а также файлы нелегального содержания!


    _________________
    [Профиль] [ЛС]
    Показать сообщения:    
    Ответить на тему

    Текущее время: Сегодня, в 11:50

    Часовой пояс: GMT + 2



    Вы не можете начинать темы
    Вы не можете отвечать на сообщения
    Вы не можете редактировать свои сообщения
    Вы не можете удалять свои сообщения
    Вы не можете голосовать в опросах
    Вы не можете прикреплять файлы к сообщениям
    Вы не можете скачивать файлы