BitTorrentTracker PerecTracker.org
BitTorrentTracker PerecTracker.org
    
Регистрация  ·  Вход
 
 · 
Забыли пароль?

  • Сегодня - новый аттракцион (Надежда Кошеверова, Аполлинарий Дудко) [1965, комедия, DVDRip-AVC]

    Ответить на тему
     
    Автор Сообщение

    Light

    Создавать темы 24-Авг-2015 18:53

           

    [Цитировать]

    Сегодня - новый аттракцион-Жанр: комедия
    Год выпуска: 1965
    Продолжительность: 01:29:06-Режиссёр: Надежда Кошеверова, Аполлинарий Дудко-В ролях:
    Фаина Раневская, Марина Полбенцева, Отар Коберидзе, Павел Суханов, Гелий Сысоев, Игорь Горбачев, Михаил Глузский, Лев Лемке
    Описание:
    История о цирке и цирковых артистах. Героиня фильма, сменив амплуа и став дрессировщицей тигров, добивается оглушительного успеха.-Исходник | Сэмпл | Кинопоиск-Качество видео: DVDRip-AVC, спасибо intellect
    Формат видео: MKV
    Видео: x264 (High@L4.1); 702@748x366, Display aspect ratio 2.044:1, 25.000 fps, 2140 Kbps
    Аудио: Оригинал AC-3; 16 bits 48 Khz; 2.0ch 192 Kbps; CBR

    Исходник

    Странный, одним словом. С двоением вертикальных линий и скоплением грязи на них. В меру сил исправлено, плюс дебандер по фону.source vs. script:
    http://screenshotcomparison.com/comparison/139797
    MediaInfo

    -

    x264 log

    avs [info]: 702x366p 16:15 @ 25/1 fps (cfr)
    x264 [info]: using SAR=16/15
    x264 [info]: using cpu capabilities: MMX2 SSE2Fast SSSE3 SSE4.2
    x264 [info]: profile High, level 4.1
    x264 [info]: frame I:703 Avg QP:19.10 size: 43124
    x264 [info]: frame P:30583 Avg QP:21.22 size: 21139
    x264 [info]: frame B:102370 Avg QP:23.49 size: 7359
    x264 [info]: consecutive B-frames: 1.3% 2.2% 8.4% 35.2% 22.0% 26.0% 3.3% 1.1% 0.3% 0.1%
    x264 [info]: mb I I16..4: 1.7% 81.6% 16.7%
    x264 [info]: mb P I16..4: 0.1% 14.6% 1.4% P16..4: 29.0% 37.2% 15.9% 1.7% 0.1% skip: 0.0%
    x264 [info]: mb B I16..4: 0.0% 1.2% 0.1% B16..8: 36.0% 24.6% 4.9% direct:10.9% skip:22.2% L0:34.3% L1:39.4% BI:26.4%
    x264 [info]: 8x8 transform intra:89.9% inter:58.3%
    x264 [info]: direct mvs spatial:98.5% temporal:1.5%
    x264 [info]: coded y,uvDC,uvAC intra: 99.2% 76.2% 44.1% inter: 50.5% 28.5% 5.0%
    x264 [info]: i16 v,h,dc,p: 18% 17% 11% 53%
    x264 [info]: i8 v,h,dc,ddl,ddr,vr,hd,vl,hu: 14% 7% 8% 9% 13% 13% 12% 12% 12%
    x264 [info]: i4 v,h,dc,ddl,ddr,vr,hd,vl,hu: 10% 8% 2% 8% 16% 16% 15% 12% 13%
    x264 [info]: i8c dc,h,v,p: 33% 27% 24% 17%
    x264 [info]: Weighted P-Frames: Y:45.4% UV:23.5%
    x264 [info]: ref P L0: 38.9% 15.6% 14.3% 7.0% 4.4% 4.0% 2.9% 2.0% 1.7% 1.7% 1.4% 1.4% 1.2% 1.3% 1.2% 1.0%
    x264 [info]: ref B L0: 84.1% 8.1% 2.0% 1.3% 0.8% 0.8% 0.5% 0.4% 0.3% 0.4% 0.3% 0.3% 0.3% 0.2% 0.1%
    x264 [info]: ref B L1: 97.5% 2.5%
    x264 [info]: kb/s:2139.99
    x264 [total]: encoded 133656 frames, 14.99 fps, 2139.99 kb/s
    -General
    Unique ID : 244960947634124425051493467469264431757 (0xB849C32E4FAD2D63B4ACFD90BA43AA8D)
    Complete name : Сегодня новый аттракцион.1965.mkv
    Format : Matroska
    Format version : Version 2
    File size : 1.45 GiB
    Duration : 1h 29mn
    Overall bit rate : 2 334 Kbps
    Movie name : «Сегодня новый аттракцион»
    Encoded date : UTC 2015-08-24 09:10:43
    Writing application : mkvmerge v5.8.0 ('No Sleep / Pillow') built on Sep 2 2012 15:37:04
    Writing library : libebml v1.2.3 + libmatroska v1.3.0
    Comment : DVDRip-AVC
    Originally released : August 23rd 2015
    Encoded by : george$t®
    Video
    ID : 1
    Format : AVC
    Format/Info : Advanced Video Codec
    Format profile : High@L4.1
    Format settings, CABAC : Yes
    Format settings, ReFrames : 16 frames
    Codec ID : V_MPEG4/ISO/AVC
    Duration : 1h 29mn
    Bit rate : 2 140 Kbps
    Width : 702 pixels
    Height : 366 pixels
    Display aspect ratio : 2.044
    Original display aspect rat : 2.046
    Frame rate mode : Constant
    Frame rate : 25.000 fps
    Color space : YUV
    Chroma subsampling : 4:2:0
    Bit depth : 8 bits
    Scan type : Progressive
    Bits/(Pixel*Frame) : 0.333
    Stream size : 1.30 GiB (90%)
    Title : Сегодня новый аттракцион.1965
    Writing library : x264 core 148 r2579kMod 73ae2d1
    Encoding settings : cabac=1 / ref=16 / deblock=1:-1:0 / analyse=0x3:0x133 / me=umh / subme=11 / psy=1 / fade_compensate=0.00 / psy_rd=0.90:0.05 / mixed_ref=1 / me_range=32 / chroma_me=1 / trellis=2 / 8x8dct=1 / cqm=0 / deadzone=21,11 / fast_pskip=0 / chroma_qp_offset=-3 / threads=11 / lookahead_threads=1 / sliced_threads=0 / nr=0 / decimate=0 / interlaced=0 / bluray_compat=0 / constrained_intra=0 / fgo=0 / bframes=9 / b_pyramid=2 / b_adapt=2 / b_bias=0 / direct=3 / weightb=1 / open_gop=0 / weightp=2 / keyint=250 / keyint_min=25 / scenecut=40 / intra_refresh=0 / rc_lookahead=40 / rc=2pass / mbtree=0 / bitrate=2140 / ratetol=1.0 / qcomp=0.65 / qpmin=0 / qpmax=69 / qpstep=4 / cplxblur=20.0 / qblur=0.5 / vbv_maxrate=50000 / vbv_bufsize=62500 / nal_hrd=none / filler=0 / ip_ratio=1.30 / pb_ratio=1.30 / aq=1:0.80
    Language : Russian
    Default : Yes
    Forced : No
    Color primaries : BT.601 PAL
    Transfer characteristics : BT.470 System B, BT.470 System G
    Matrix coefficients : BT.601
    Color range : Limited
    Audio
    ID : 2
    Format : AC-3
    Format/Info : Audio Coding 3
    Mode extension : CM (complete main)
    Format settings, Endianness : Big
    Codec ID : A_AC3
    Duration : 1h 29mn
    Bit rate mode : Constant
    Bit rate : 192 Kbps
    Channel(s) : 2 channels
    Channel positions : Front: L R
    Sampling rate : 48.0 KHz
    Bit depth : 16 bits
    Compression mode : Lossy
    Stream size : 122 MiB (8%)
    Title : Оригинал AC-3; 16 bits 48 Khz; 2.0ch 192 Kbps; CBR
    Language : Russian
    Default : Yes
    Forced : No
    Menu
    00:00:00.000 : ru:Новый номер
    00:08:15.000 : ru:Предложение директора цирка
    00:17:36.760 : ru:Парфёнов с киностудии
    00:23:44.520 : ru:Успех
    00:29:55.960 : ru:Ассистент
    00:44:59.360 : ru:Репетиция
    00:49:13.960 : ru:Авторитет
    00:52:55.920 : ru:Беспокойный слон
    00:56:14.880 : ru:Конфликт
    01:04:55.520 : ru:"Представление окончено!"
    01:10:55.000 : ru:Происшествие на гастролях
    01:18:03.600 : ru:Финал
    Скачать .torrent

    Скачать торрент-файл бесплатно и на максимальной скорости!

    Как скачивать? · Что такое торрент? · Рейтинг и ограничения

    !ВНИМАНИЕ!
    Сайт не распространяет и не хранит электронные версии произведений, а занимается лишь лишь предоставлением доступа к создаваемому пользователями каталогу ссылок на торрент-файлы, которые содержат только списки хеш-сумм, убедительная просьба с жалобами обращаться напрямую к пользователю. Файлы для обмена на трекере предоставлены пользователями сайта, и администрация не несёт ответственности за их содержание. Просьба не заливать файлы, защищенные авторскими правами, а также файлы нелегального содержания!


    _________________
    [Профиль] [ЛС]
    Показать сообщения:    
    Ответить на тему

    Текущее время: Сегодня, в 11:47

    Часовой пояс: GMT + 2



    Вы не можете начинать темы
    Вы не можете отвечать на сообщения
    Вы не можете редактировать свои сообщения
    Вы не можете удалять свои сообщения
    Вы не можете голосовать в опросах
    Вы не можете прикреплять файлы к сообщениям
    Вы не можете скачивать файлы