BitTorrentTracker PerecTracker.org
BitTorrentTracker PerecTracker.org
    
Регистрация  ·  Вход
 
 · 
Забыли пароль?

  • Топ Гир: Фестиваль в Сиднее / Top Gear Festival: Sydney [2013 г., UK, Автопередача, WEB-DLRip] MVO (AlexFilm)

    Ответить на тему
     
    Автор Сообщение

    Light

    Создавать темы 24-Авг-2015 02:05

           

    [Цитировать]

    -Топ Гир: Фестиваль в Сиднее
    Top Gear Festival: Sydney
    --Год выхода: 2013
    Страна: Великобритания, Австралия
    Жанр: Автопередача
    Продолжительность: 49 мин
    Озвучание: профессиональное многоголосое закадровое (AlexFilm)
    Субтитры: нет-В ролях: Джереми Кларксон, Джеймс Мэй, Шэйн Джейкобсен, Стив Пиззати-Описание: В этом специальном выпуске Джереми Кларксон, Джеймс Мэй и ведущие австралийского "Топ Гира" Шэйн Джейкобсен и Стив Пиззати устраивают автомобильный фестиваль на глазах у сорока тысяч фанатов на гоночном треке в Сиднее, Австралия.
    Марк Уэббер будет соревноваться на своём болиде F1 против Кэйси Стоунера на супербайке.
    Джеймс попытается ускорить австралийскую почтовую службу с помощью гонщиков на супербайках.
    Кларксон попробует опередить олимпийского чемпиона по бегу с барьерами на Nissan GTR, а затем создаст реактивную версию себя, чтобы посоревноваться в драг-рейсинге.
    Вас также ожидает самая опасная версия автомобильного футбола на трёхколёсных Reliant Robin.-Релиз:
    Перевод: Константин Кривоногов, Полина Суворова
    Монтаж и сведение звука: Михаил Шорыгин
    Роли озвучивали:
  • Татьяна Манетина
  • Андрей Стакионис
  • Роман Сопко
  • Константин Погодаев- -Качество видео: WEB-DLRip
    Формат: AVI
    Видео: 720x400 (1.80:1), 25 fps, XviD ~1400 kbps avg, 0.194 bit/pixel
    Аудио Rus: 48 kHz, MPEG Layer 3, 2 ch, ~192.00 kbps
    Аудио Eng: 48 kHz, MPEG Layer 3, 2 ch, ~192.00 kbps-

    Скриншоты

    MediaInfo

    Формат : AVI
    Формат/Информация : Audio Video Interleave
    Размер файла : 610 Мбайт
    Продолжительность : 49 м.
    Общий поток : 1734 Кбит/сек
    Название фильма : Top Gear. Festival Sydney 2013 @ AlexFilm
    Программа кодирования : VirtualDubMod 1.5.10.2 (build 2540/release)
    Библиотека кодирования : VirtualDubMod build 2540/release
    Видео
    Идентификатор : 0
    Формат : MPEG-4 Visual
    Профиль формата : Advanced Simple@L5
    Параметр BVOP формата : Нет
    Параметр QPel формата : Нет
    Параметр GMC формата : Без точки перехода
    Параметр матрицы формата : Default (H.263)
    Идентификатор кодека : XVID
    Идентификатор кодека/Подсказка : XviD
    Продолжительность : 49 м.
    Битрейт : 1399 Кбит/сек
    Ширина : 720 пикселей
    Высота : 400 пикселей
    Соотношение сторон : 16:9
    Частота кадров : 25,000 кадров/сек
    Цветовое пространство : YUV
    Субдискретизация насыщенности : 4:2:0
    Битовая глубина : 8 бит
    Тип развёртки : Прогрессивная
    Метод сжатия : С потерями
    Бит/(Пиксели*Кадры) : 0.194
    Размер потока : 492 Мбайт (81%)
    Библиотека кодирования : XviD 73
    Аудио #1
    Идентификатор : 1
    Формат : MPEG Audio
    Версия формата : Version 1
    Профиль формата : Layer 3
    Режим : Joint stereo
    Расширение режима : MS Stereo
    Идентификатор кодека : 55
    Идентификатор кодека/Подсказка : MP3
    Продолжительность : 49 м.
    Вид битрейта : Постоянный
    Битрейт : 128 Кбит/сек
    Каналы : 2 канала
    Частота : 48,0 КГц
    Метод сжатия : С потерями
    Размер потока : 45,0 Мбайт (7%)
    Выравнивание : Соединение по промежуткам
    Продолжительность промежутка : 40 мс. (1,00 видеокадр)
    Время предзагрузки промежутка : 504 мс.
    Заголовок : Russian (AlexFilm)
    Библиотека кодирования : LAME3.99r
    Настройки программы : -m j -V 4 -q 3 -lowpass 18 -b 128
    Аудио #2
    Идентификатор : 2
    Формат : MPEG Audio
    Версия формата : Version 1
    Профиль формата : Layer 3
    Режим : Joint stereo
    Расширение режима : MS Stereo
    Идентификатор кодека : 55
    Идентификатор кодека/Подсказка : MP3
    Продолжительность : 49 м.
    Вид битрейта : Постоянный
    Битрейт : 192 Кбит/сек
    Каналы : 2 канала
    Частота : 48,0 КГц
    Метод сжатия : С потерями
    Размер потока : 67,5 Мбайт (11%)
    Выравнивание : Соединение по промежуткам
    Продолжительность промежутка : 40 мс. (1,00 видеокадр)
    Время предзагрузки промежутка : 504 мс.
    Заголовок : English
    Библиотека кодирования : LAME3.90.3
    -Раздачи Top Gear в озвучке AlexFilm-
    Скачать .torrent

    Скачать торрент-файл бесплатно и на максимальной скорости!

    Как скачивать? · Что такое торрент? · Рейтинг и ограничения

    !ВНИМАНИЕ!
    Сайт не распространяет и не хранит электронные версии произведений, а занимается лишь лишь предоставлением доступа к создаваемому пользователями каталогу ссылок на торрент-файлы, которые содержат только списки хеш-сумм, убедительная просьба с жалобами обращаться напрямую к пользователю. Файлы для обмена на трекере предоставлены пользователями сайта, и администрация не несёт ответственности за их содержание. Просьба не заливать файлы, защищенные авторскими правами, а также файлы нелегального содержания!


  • _________________
    [Профиль] [ЛС]
    Показать сообщения:    
    Ответить на тему

    Текущее время: Сегодня, в 12:35

    Часовой пояс: GMT + 2



    Вы не можете начинать темы
    Вы не можете отвечать на сообщения
    Вы не можете редактировать свои сообщения
    Вы не можете удалять свои сообщения
    Вы не можете голосовать в опросах
    Вы не можете прикреплять файлы к сообщениям
    Вы не можете скачивать файлы