BitTorrentTracker PerecTracker.org
BitTorrentTracker PerecTracker.org
    
Регистрация  ·  Вход
 
 · 
Забыли пароль?

  • Белый танец (Валентин Виноградов) [1981, Драма, DVB]

    Ответить на тему
     
    Автор Сообщение

    Light

    Создавать темы 24-Авг-2015 02:05

           

    [Цитировать]

    Белый танец
    Жанр: Драма
    Год выпуска: 1981
    Продолжительность: 01:06:23
    Режиссёр: Валентин Виноградов
    В ролях: Надежда Бутырцева, Ивар Калныньш, Александр Потапов, Виктор Павлов, Витаутас Томкус, Борис Новиков, Татьяна Говоровa, Валентин Голубенко, Сергей Плотников, Сергей Бехтерев
    Описание: 20-е годы в кубанской деревне Талицы. В бывшей княжеской усадьбе Степан Хомутов организовал коммуну. Но бандиты, переодетые чекистами, грабят обоз с посевным коммунарским зерном. А местные крестьяне выжидают, кто же победит в этой беспощадной борьбе, и не спешат присоединяться ни к бандитам, ни к коммунарам…
    Доп. информация: Запись потока *.ts со спутника EUTELSAT 36A/B, 36° в.д., ремукс в *.mpg программой VideoReDo.
    Качество видео: DVB
    Формат видео: MPEG-PS
    Видео: MPEG2 Video, 720(768)x576 (4:3), 25,000 кадров/сек, 3515 Кбит/сек
    Аудио: MPEG Audio, 48,0 КГц, 192 Кбит/сек, 2 канала

    MediaInfo

    Общее
    Полное имя : D:\MPG\БЕЛЫЙ ТАНЕЦ (Ностальгия).mpg
    Формат : MPEG-PS
    Размер файла : 1,75 Гбайт
    Продолжительность : 1 ч. 6 м.
    Режим общего битрейта : Переменный
    Общий поток : 3782 Кбит/сек
    Видео
    Идентификатор : 224 (0xE0)
    Формат : MPEG Video
    Версия формата : Version 2
    Профиль формата : Main@Main
    Параметр BVOP формата : Да
    Параметр матрицы формата : Выборочная
    Параметр GOP формата : Variable
    Продолжительность : 1 ч. 6 м.
    Вид битрейта : Переменный
    Битрейт : 3515 Кбит/сек
    Максимальный битрейт : 15,0 Мбит/сек
    Ширина : 720 пикселей
    Высота : 576 пикселей
    Соотношение сторон : 4:3
    Частота кадров : 25,000 кадров/сек
    Стандарт вещания : PAL
    Цветовое пространство : YUV
    Субдискретизация насыщенности : 4:2:0
    Битовая глубина : 8 бит
    Тип развёртки : Чересстрочная
    Порядок развёртки : Верхнее поле первое
    Метод сжатия : С потерями
    Бит/(Пиксели*Кадры) : 0.339
    Временной код первого кадра : 00:00:00:00
    Оригинал временного кода : Group of pictures header
    Размер потока : 1,63 Гбайт (93%)
    Аудио
    Идентификатор : 192 (0xC0)
    Формат : MPEG Audio
    Версия формата : Version 1
    Профиль формата : Layer 2
    Продолжительность : 1 ч. 6 м.
    Вид битрейта : Постоянный
    Битрейт : 192 Кбит/сек
    Каналы : 2 канала
    Частота : 48,0 КГц
    Метод сжатия : С потерями
    Задержка видео : 13 мс.
    Размер потока : 91,2 Мбайт (5%)

    Скриншоты

    Скачать .torrent

    Скачать торрент-файл бесплатно и на максимальной скорости!

    Как скачивать? · Что такое торрент? · Рейтинг и ограничения

    !ВНИМАНИЕ!
    Сайт не распространяет и не хранит электронные версии произведений, а занимается лишь лишь предоставлением доступа к создаваемому пользователями каталогу ссылок на торрент-файлы, которые содержат только списки хеш-сумм, убедительная просьба с жалобами обращаться напрямую к пользователю. Файлы для обмена на трекере предоставлены пользователями сайта, и администрация не несёт ответственности за их содержание. Просьба не заливать файлы, защищенные авторскими правами, а также файлы нелегального содержания!


    _________________
    [Профиль] [ЛС]
    Показать сообщения:    
    Ответить на тему

    Текущее время: Сегодня, в 16:30

    Часовой пояс: GMT + 2



    Вы не можете начинать темы
    Вы не можете отвечать на сообщения
    Вы не можете редактировать свои сообщения
    Вы не можете удалять свои сообщения
    Вы не можете голосовать в опросах
    Вы не можете прикреплять файлы к сообщениям
    Вы не можете скачивать файлы