BitTorrentTracker PerecTracker.org
BitTorrentTracker PerecTracker.org
    
Регистрация  ·  Вход
 
 · 
Забыли пароль?

  • Свидание на одну ночь / One Night Stand (Майк Фиггис) [1997, США, драма, мелодрама, WEB-DL HD (720p)] DVO, Original + SUB (rus, eng)

    Ответить на тему
     
    Автор Сообщение

    rechyn

    Создавать темы 24-Авг-2015 02:05

           

    [Цитировать]

    Свидание на одну ночь / One Night Stand
    "Одна ночь, которая изменила всё"
    6.927 / 10
    -Год выпуска: 1997
    Страна: США
    Жанр: драма, мелодрама
    Продолжительность: 102 мин.
    Перевод: Двухголосый закадровый перевод
    Оригинальная аудиодорожка: Есть
    Cубтитры: Русские полные и английские полные
    Режиссёр: Майк Фиггис
    Сценарий: Майк Фиггис
    Продюсер: Майк Фиггис, Бен Майрон, Энни Стюарт
    Оператор: Деклан Куинн
    Композитор: Майк Фиггис
    Художник: Вальдемар Калиновски, Бэрри Кингстон, Лаура Голдсмит
    Монтаж: Джон Смит
    В ролях: Уэсли Снайпс, Настасья Кински, Кайл МакЛоклен, Минг-На, Роберт Дауни мл., Маркус Т. Полк, Натали Тротт, Джон Калли, Гленн Пламмер, Аманда Донохью
    Бюджет: $24 000 000
    Сборы в США: $2 642 983
    Мировая премьера: 31 августа 1997
    Релиз на DVD: 16 октября 2008, CP-Digital
    Описание: Прилетев по делам из Лос-Анджелеса в Нью-Йорк, коммерческий директор рекламной фирмы Макс решает повидать своего старого друга-гея Чарли, заболевшего СПИДом. В кафе гостиницы он знакомится с очаровательной женщиной Карен. Опоздав на самолёт, он отправляется с Карен на концерт, после которого спасает её от уличных грабителей и проводит с ней ночь любви, а утром улетает домой, где его ждут жена Мими и двое детей.
    Ночное свидание переменило всю жизнь Макса. Он охладел к жене и всё время вспоминает Карен. Через год он вновь прилетает в Нью-Йорк, так как Чарли уже при смерти. В госпитале у постели больного Чарли Макс встречается с его братом Верноном, который представляет ему свою жену... Карен...-Качество исходника: WEB-DL 720p (HDClub)
    Качество: WEB-DL
    Тип: 720p
    Контейнер: m4v
    Видео: 1280x718 at 23.976 fps, MPEG-4 AVC, ~4200 kbps avg
    Аудио#1: Russian: 48 kHz, ААС, 2/0 (L,R), ~160.00 kbps avg |Двухголосый закадровый, R5|
    Аудио#2: Russian: 48 kHz, ААС, 2/0 (L,R), ~160.00 kbps avg |Двухголосый закадровый, Союз-Видео|
    Аудио#3: English: 48 kHz, ААС, 2/0 (L,R), ~160.00 kbps avg |DVD|
    Аудио#4: English: 48 kHz, ААС, 2/0 (L,R), ~160.00 kbps avg |iTunes US|
    Аудио#5: Russian: 48 kHz, AC3, 3/2 (L,C,R,l,r) + LFE ch, ~448.00 kbps avg |Двухголосый закадровый, R5|
    Аудио#6: English: 48 kHz, AC3, 3/2 (L,C,R,l,r) + LFE ch, ~448.00 kbps avg |DVD|
    Субтитры №1: Russian: |Полные|
    Субтитры №1: English: |Полные|-

    Знаете ли Вы, что...
  • В сцене ссоры супругов в исполнении Уэсли Снайпса и Минг-На в зеркале, которое висит на стене, можно заметить отражение микрофона съемочной группы.
    -

    iTunes Meta Tags for country us

    Name: One Night Stand
    Artist: Mike Figgis
    Genre: Drama
    Release Date: 1997-08-31T08:00:00Z
    Description: Прилетев по делам из Лос-Анджелеса в Нью-Йорк, коммерческий директор рекламной фирмы Макс решает повидать своего старого друга-гея Чарли, заболевшего СПИДом. В кафе гостиницы он знакомится с очаровательной женщиной Карен. Опоздав на самолёт, он отправляется с Карен на концерт, после которого спасает её от уличных грабителей и проводит с ней ночь любви, а утром улетает домой, где его ждут жена Мими и двое детей. Ночное свидание переменило всю жизнь Макса...
    Long Description: Прилетев по делам из Лос-Анджелеса в Нью-Йорк, коммерческий директор рекламной фирмы Макс решает повидать своего старого друга-гея Чарли, заболевшего СПИДом. В кафе гостиницы он знакомится с очаровательной женщиной Карен. Опоздав на самолёт, он отправляется с Карен на концерт, после которого спасает её от уличных грабителей и проводит с ней ночь любви, а утром улетает домой, где его ждут жена Мими и двое детей.
    Ночное свидание переменило всю жизнь Макса. Он охладел к жене и всё время вспоминает Карен. Через год он вновь прилетает в Нью-Йорк, так как Чарли уже при смерти. В госпитале у постели больного Чарли Макс встречается с его братом Верноном, который представляет ему свою жену... Карен...
    Rating: R
    Studio: Warner Bros.
    Cast: Уэсли Снайпс, Настасья Кински, Кайл МакЛоклен, Минг-На, Роберт Дауни мл., Маркус Т. Полк, Натали Тротт, Джон Калли, Гленн Пламмер, Аманда Донохью
    Director: Майк Фиггис
    Producers: Майк Фиггис, Бен Майрон, Энни Стюарт
    Screenwriters: Майк Фиггис
    Copyright: © 1997 Warner Bros. Entertainment Inc. All Rights Reserved
    contentID: 545091510
    XID: Apple:vendor_id:1997-9213
    Sort Name: One Night Stand

    MediaInfo 720p Release

    General
    Complete name : One Night Stand (HD).m4v
    Format : MPEG-4
    Codec ID : M4V
    File size : 4.11 GiB
    Duration : 1h 43mn
    Overall bit rate mode : Variable
    Overall bit rate : 5 715 Kbps
    Movie name : One Night Stand
    Performer : Mike Figgis
    Director : Майк Фиггис
    Actor : Уэсли Снайпс / Настасья Кински / Кайл МакЛоклен / Минг-На / Роберт Дауни мл. / Маркус Т. Полк / Натали Тротт / Джон Калли / Гленн Пламмер / Аманда Донохью
    Screenplay by : Майк Фиггис
    Producer : Майк Фиггис / Бен Майрон / Энни Стюарт
    Production studio : Warner Bros.
    Genre : Drama
    ContentType : Short Film
    Description : Прилетев по делам из Лос-Анджелеса в Нью-Йорк, коммерческий директор рекламной фирмы Макс решает повидать своего старого друга-гея Чарли, заболевшего СПИДом. В кафе гостиницы он знакомится с очаровательной женщиной Карен. Опоздав на самолёт, он отправляется с Карен на концерт, после которого спасает её от уличных грабителей и проводит с ней ночь любви, а утром улетает домой, где его ждут жена Мими и двое детей. Ночное свидание переменило всю жизнь Макса...
    Recorded date : UTC 1997-08-31 08:00:00
    Encoded date : UTC 2015-08-23 18:45:38
    Tagged date : UTC 2015-08-23 18:50:35
    Copyright : © 1997 Warner Bros. Entertainment Inc. All Rights Reserved
    Cover : Yes
    Rating : None
    Title/Sort : One Night Stand
    LongDescription : Прилетев по делам из Лос-Анджелеса в Нью-Йорк, коммерческий директор рекламной фирмы Макс решает повидать своего старого друга-гея Чарли, заболевшего СПИДом. В кафе гостиницы он знакомится с очаровательной женщиной Карен. Опоздав на самолёт, он отправляется с Карен на концерт, после которого спасает её от уличных грабителей и проводит с ней ночь любви, а утром улетает домой, где его ждут жена Мими и двое детей. / Ночное свидание переменило всю жизнь Макса. Он охладел к жене и всё время вспоминает Карен. Через год он вновь прилетает в Нью-Йорк, так как Чарли уже при смерти. В госпитале у постели больного Чарли Макс встречается с его братом Верноном, который представляет ему свою жену... Карен...
    HDVideo : Yes
    AppleStoreCatalogID : 545091510
    Vendor : Apple:vendor_id:1997-9213
    ContentRating : mpaa|R|400|
    Video #1
    ID : 1
    Format : AVC
    Format/Info : Advanced Video Codec
    Format profile : High@L3.1
    Format settings, CABAC : No
    Format settings, ReFrames : 2 frames
    Format settings, GOP : M=2, N=86
    Codec ID : avc1
    Codec ID/Info : Advanced Video Coding
    Duration : 1h 43mn
    Bit rate : 4 216 Kbps
    Width : 1 280 pixels
    Height : 718 pixels
    Display aspect ratio : 16:9
    Frame rate mode : Variable
    Frame rate : 23.976 fps
    Minimum frame rate : 23.810 fps
    Maximum frame rate : 24.390 fps
    Color space : YUV
    Chroma subsampling : 4:2:0
    Bit depth : 8 bits
    Scan type : Progressive
    Bits/(Pixel*Frame) : 0.191
    Stream size : 3.03 GiB (74%)
    Title : Main Program
    Language : English
    Encoded date : UTC 2015-08-23 18:45:38
    Tagged date : UTC 2015-08-23 18:49:47
    Color range : Limited
    Color primaries : BT.709
    Transfer characteristics : BT.709
    Matrix coefficients : BT.709
    Video #2
    ID : 11
    Format : JPEG
    Codec ID : jpeg
    Duration : 1h 43mn
    Bit rate mode : Variable
    Bit rate : 773 bps
    Width : 640 pixels
    Height : 359 pixels
    Display aspect ratio : 16:9
    Frame rate mode : Variable
    Frame rate : 0.003 fps
    Minimum frame rate : 0.001 fps
    Maximum frame rate : 0.009 fps
    Color space : YUV
    Chroma subsampling : 4:2:0
    Bit depth : 8 bits
    Compression mode : Lossy
    Bits/(Pixel*Frame) : 1.121
    Stream size : 566 KiB (0%)
    Title : Chapter Images
    Language : English
    Encoded date : UTC 2015-08-23 18:49:52
    Tagged date : UTC 2015-08-23 18:49:52
    Audio #1
    ID : 2
    Format : AAC
    Format/Info : Advanced Audio Codec
    Format profile : LC
    Codec ID : 40
    Duration : 1h 43mn
    Bit rate mode : Variable
    Bit rate : 164 Kbps
    Maximum bit rate : 245 Kbps
    Channel(s) : 2 channels
    Channel positions : Front: L R
    Sampling rate : 48.0 KHz
    Compression mode : Lossy
    Stream size : 121 MiB (3%)
    Title : Russian DVO R5 Stereo
    Language : Russian
    Encoded date : UTC 2015-08-23 18:45:38
    Tagged date : UTC 2015-08-23 18:45:43
    Audio #2
    ID : 3
    Format : AAC
    Format/Info : Advanced Audio Codec
    Format profile : LC
    Codec ID : 40
    Duration : 1h 43mn
    Bit rate mode : Variable
    Bit rate : 129 Kbps
    Maximum bit rate : 185 Kbps
    Channel(s) : 2 channels
    Channel positions : Front: L R
    Sampling rate : 48.0 KHz
    Compression mode : Lossy
    Stream size : 94.9 MiB (2%)
    Title : Russian DVO Soyuz-Video Stereo
    Language : Russian
    Encoded date : UTC 2015-08-23 18:45:38
    Tagged date : UTC 2015-08-23 18:45:43
    Audio #3
    ID : 4
    Format : AAC
    Format/Info : Advanced Audio Codec
    Format profile : LC
    Codec ID : 40
    Duration : 1h 43mn
    Bit rate mode : Variable
    Bit rate : 170 Kbps
    Maximum bit rate : 247 Kbps
    Channel(s) : 2 channels
    Channel positions : Front: L R
    Sampling rate : 48.0 KHz
    Compression mode : Lossy
    Stream size : 125 MiB (3%)
    Title : English from DVD Stereo
    Language : English
    Encoded date : UTC 2015-08-23 18:45:38
    Tagged date : UTC 2015-08-23 18:45:43
    Audio #4
    ID : 5
    Format : AAC
    Format/Info : Advanced Audio Codec
    Format profile : LC
    Codec ID : 40
    Duration : 1h 43mn
    Bit rate mode : Variable
    Bit rate : 127 Kbps
    Maximum bit rate : 193 Kbps
    Channel(s) : 2 channels
    Channel positions : Front: L R
    Sampling rate : 48.0 KHz
    Compression mode : Lossy
    Stream size : 93.3 MiB (2%)
    Title : English from iTunes Stereo
    Language : English
    Encoded date : UTC 2015-08-23 18:45:38
    Tagged date : UTC 2015-08-23 18:49:47
    Audio #5
    ID : 6
    Format : AC-3
    Format/Info : Audio Coding 3
    Mode extension : CM (complete main)
    Format settings, Endianness : Big
    Codec ID : ac-3
    Duration : 1h 43mn
    Bit rate mode : Constant
    Bit rate : 448 Kbps
    Channel(s) : 6 channels
    Channel positions : Front: L C R, Side: L R, LFE
    Sampling rate : 48.0 KHz
    Bit depth : 16 bits
    Compression mode : Lossy
    Stream size : 330 MiB (8%)
    Title : Russian DVO R5 DD 5.1
    Language : Russian
    Encoded date : UTC 2015-08-23 18:45:38
    Tagged date : UTC 2015-08-23 18:49:47
    Audio #6
    ID : 7
    Format : AC-3
    Format/Info : Audio Coding 3
    Mode extension : CM (complete main)
    Format settings, Endianness : Big
    Codec ID : ac-3
    Duration : 1h 43mn
    Bit rate mode : Constant
    Bit rate : 448 Kbps
    Channel(s) : 6 channels
    Channel positions : Front: L C R, Side: L R, LFE
    Sampling rate : 48.0 KHz
    Bit depth : 16 bits
    Compression mode : Lossy
    Stream size : 330 MiB (8%)
    Title : English from DVD DD 5.1
    Language : English
    Encoded date : UTC 2015-08-23 18:45:38
    Tagged date : UTC 2015-08-23 18:49:47
    Text #1
    ID : 8
    Format : Timed Text
    Muxing mode : sbtl
    Codec ID : tx3g
    Duration : 1h 38mn
    Bit rate mode : Variable
    Bit rate : 81 bps
    Stream size : 58.2 KiB (0%)
    Title : Russian Subtitle
    Language : Russian
    Encoded date : UTC 2015-08-23 18:45:38
    Tagged date : UTC 2015-08-23 18:45:38
    Text #2
    ID : 9
    Format : Timed Text
    Muxing mode : sbtl
    Codec ID : tx3g
    Duration : 1h 41mn
    Bit rate mode : Variable
    Bit rate : 67 bps
    Stream size : 49.7 KiB (0%)
    Title : English Subtitle
    Language : English
    Encoded date : UTC 2015-08-23 18:45:38
    Tagged date : UTC 2015-08-23 18:45:38
    Menu #1
    00:00:00.000 : 1.
    00:02:03.000 : 2.
    00:04:40.000 : 3.
    00:07:18.000 : 4.
    00:16:07.000 : 5.
    00:21:07.000 : 6.
    00:22:57.000 : 7.
    00:30:13.000 : 8.
    00:34:46.000 : 9.
    00:39:31.000 : 10.
    00:47:56.000 : 11.
    00:51:01.000 : 12.
    01:02:58.000 : 13.
    01:12:01.000 : 14.
    01:21:29.000 : 15.
    01:27:38.000 : 16.
    01:30:36.000 : 17.
    01:34:57.000 : 18.
    Menu #2
    ID : 10
    Codec ID : text
    Duration : 1h 43mn
    Title : Chapter Titles
    Language : English
    Encoded date : UTC 2015-08-23 18:49:48
    Tagged date : UTC 2015-08-23 18:49:48
    00:00:00.000 : 1.
    00:02:03.000 : 2.
    00:04:40.000 : 3.
    00:07:18.000 : 4.
    00:16:07.000 : 5.
    00:21:07.000 : 6.
    00:22:57.000 : 7.
    00:30:13.000 : 8.
    00:34:46.000 : 9.
    00:39:31.000 : 10.
    00:47:56.000 : 11.
    00:51:01.000 : 12.
    01:02:58.000 : 13.
    01:12:01.000 : 14.
    01:21:29.000 : 15.
    01:27:38.000 : 16.
    01:30:36.000 : 17.
    01:34:57.000 : 18.
    Bit rate mode : VBR

    Скриншоты 720p Release

    Цитата:
    Цитата:

    • Сохранены и прописаны чаптеры, как в исходной WEB-DL;
    • Исходник дорожки №3 взят с DVD. Дорожка №4 из родной WEB-DL.
    -

    Релиз подготовлен для просмотра на Apple TV, iPad, iPhone, iPod Touch.
    Для просмотра данного релиза на компьютере с ОС Windows рекомендуется использовать VLC media player
    Скачать .torrent

    Скачать торрент-файл бесплатно и на максимальной скорости!

    Как скачивать? · Что такое торрент? · Рейтинг и ограничения

    !ВНИМАНИЕ!
    Сайт не распространяет и не хранит электронные версии произведений, а занимается лишь лишь предоставлением доступа к создаваемому пользователями каталогу ссылок на торрент-файлы, которые содержат только списки хеш-сумм, убедительная просьба с жалобами обращаться напрямую к пользователю. Файлы для обмена на трекере предоставлены пользователями сайта, и администрация не несёт ответственности за их содержание. Просьба не заливать файлы, защищенные авторскими правами, а также файлы нелегального содержания!


  • _________________
    [Профиль] [ЛС]
    Показать сообщения:    
    Ответить на тему

    Текущее время: Сегодня, в 15:03

    Часовой пояс: GMT + 2



    Вы не можете начинать темы
    Вы не можете отвечать на сообщения
    Вы не можете редактировать свои сообщения
    Вы не можете удалять свои сообщения
    Вы не можете голосовать в опросах
    Вы не можете прикреплять файлы к сообщениям
    Вы не можете скачивать файлы