BitTorrentTracker PerecTracker.org
BitTorrentTracker PerecTracker.org
    
Регистрация  ·  Вход
 
 · 
Забыли пароль?

  • Падший предвестник / Harbinger down (Алек Гиллис / Alec Gillis) [2015, США, фантастика, WEB-DLRip] VO (Lord32x)

    Ответить на тему
     
    Автор Сообщение

    rechyn

    Создавать темы 24-Авг-2015 02:05

           

    [Цитировать]

    Падший предвестник / Harbinger down
    Страна: США
    Жанр: фантастика
    Год выпуска: 2015
    Продолжительность: 01:21:44
    Перевод: Одноголосый закадровый Lord32x
    Cубтитры: нет
    Режиссер: Алек Гиллис / Alec Gillis
    В ролях: Ланс Хенриксен, Камиль Бальзамо, Мэт Уинстон, Рейд Коллам, Уинстон Фрэнсиз
    Описание: Группа ученых исследует влияние глобального потепления на обитателей морских глубин в Беринговом море, неожиданно они натыкаются на космический корабль, много лет назад рухнувший на Землю. На борту корабля прячется что-то опасное...
    Доп. информация: Режиссер фильма Алек Гиллис (он же автор сценария) - по первой профессии мастер по спецэффектам, дважды номинировался на Оскар: за эффекты к фильмам "Звездный десант" и "Чужой 3".
    Последнее время Гиллис хандрил, потому что традиционные, рукотворные спецэффекты оказались вытеснены с рынка компьютерной анимацией. В итоге он решил сам снять кино, в котором не будет ни одного обработанного на компьютере кадра. Только "ловкость рук и никаких CGI". Так появился "Предвестник".
    Это фильм - посвящение классическим картинам о пришельцах и монстрах из тех времен, когда еще не было компьютеров, но зато (по словам режиссера) была свобода творчества и ничем не ограниченная креативность.
    Ланс Хенриксен, сыгравший в фильме капитана, известен по роли робота из 2 и 3 частей "Чужого". Участие в этой картине он назвал "встречей с молодостью".
    Сэмпл
    Перевод: М.Васильев
    Озвучка: Lord32x
    Качество видео: WEB-DLRip
    Формат видео: AVI
    Видео: 2170 Kbps, 720x304 (2.35:1) 23 976 fps, MPEG 4 XviD
    Аудио: 384 Kbps, 48.0 KHz, 16 bits, 6 ch, AC 3

    MediaInfo

    General
    Complete name : C:\Users\master\Documents\Downloads\KinoRay.Harbinger.Down.2015.avi
    Format : AVI
    Format/Info : Audio Video Interleave
    File size : 1.46 GiB
    Duration : 1h 21mn
    Overall bit rate : 2 563 Kbps
    Writing application : VirtualDubMod 1.5.10.3 | www.virtualdub-fr.org || (build 2550/release)
    Writing library : VirtualDubMod build 2550/release
    Video
    ID : 0
    Format : MPEG-4 Visual
    Format profile : Advanced Simple@L5
    Format settings, BVOP : 1
    Format settings, QPel : No
    Format settings, GMC : No warppoints
    Format settings, Matrix : Default (H.263)
    Codec ID : XVID
    Codec ID/Hint : XviD
    Duration : 1h 21mn
    Bit rate : 2 170 Kbps
    Width : 720 pixels
    Height : 304 pixels
    Display aspect ratio : 2.35:1
    Frame rate : 23.976 fps
    Color space : YUV
    Chroma subsampling : 4:2:0
    Bit depth : 8 bits
    Scan type : Progressive
    Compression mode : Lossy
    Bits/(Pixel*Frame) : 0.413
    Stream size : 1.24 GiB (85%)
    Writing library : XviD 1.2.1 (UTC 2008-12-04)
    Audio
    ID : 1
    Format : AC-3
    Format/Info : Audio Coding 3
    Mode extension : CM (complete main)
    Format settings, Endianness : Big
    Codec ID : 2000
    Duration : 1h 21mn
    Bit rate mode : Constant
    Bit rate : 384 Kbps
    Channel(s) : 6 channels
    Channel positions : Front: L C R, Side: L R, LFE
    Sampling rate : 48.0 KHz
    Bit depth : 16 bits
    Compression mode : Lossy
    Stream size : 225 MiB (15%)
    Alignment : Split accross interleaves
    Interleave, duration : 42 ms (1.00 video frame)
    Interleave, preload duration : 500 ms

    Скриншот c названием фильма

    Скриншоты

    Скачать .torrent

    Скачать торрент-файл бесплатно и на максимальной скорости!

    Как скачивать? · Что такое торрент? · Рейтинг и ограничения

    !ВНИМАНИЕ!
    Сайт не распространяет и не хранит электронные версии произведений, а занимается лишь лишь предоставлением доступа к создаваемому пользователями каталогу ссылок на торрент-файлы, которые содержат только списки хеш-сумм, убедительная просьба с жалобами обращаться напрямую к пользователю. Файлы для обмена на трекере предоставлены пользователями сайта, и администрация не несёт ответственности за их содержание. Просьба не заливать файлы, защищенные авторскими правами, а также файлы нелегального содержания!


    _________________
    [Профиль] [ЛС]
    Показать сообщения:    
    Ответить на тему

    Текущее время: Сегодня, в 22:13

    Часовой пояс: GMT + 2



    Вы не можете начинать темы
    Вы не можете отвечать на сообщения
    Вы не можете редактировать свои сообщения
    Вы не можете удалять свои сообщения
    Вы не можете голосовать в опросах
    Вы не можете прикреплять файлы к сообщениям
    Вы не можете скачивать файлы