Register  ·  Log in
Forgot password?

  • Мы всё ещё здесь / We Are Still Here (Тед Гейган / Ted Geoghegan) [2015, США, Ужасы, WEB-DLRip] DVO (МЕГАПЫХАРЬ и Элис)

    Reply to topic
    Author Message


    Post 23-Aug-2015 18:41



    Мы всё ещё здесь / We Are Still Here
    Страна: США
    Жанр: Ужасы
    Год выпуска: 2015
    Продолжительность: 01:23:25
    Перевод: Любительский (двухголосый закадровый) МЕГАПЫХАРЬ и Элис
    Cубтитры: нет
    Оригинальная аудиодорожка: нет
    Режиссер: Тед Гейган / Ted Geoghegan
    В ролях: Барбара Крэмптон, Эндрю Сенсениг, Лиза Мари, Ларри Фесенден, Монте Маркэм, Сьюзэн Гибни, Майкл Патрик, Келси Дакота, Гай Гане, Элисса Бри
    Описание: Одинокий старый дом в Англии просыпается каждые тридцать лет - и требует жертв.

    Качество видео: WEB-DLRip
    Формат видео: AVI
    Видео: XviD, 640x272, 23.976 fps, 1034 Kbit/s
    Аудио: AC3, 48.0 KHz, 2 канала, 192 kbit/s


    Complete name : C:\Documents and Settings\Admin.MICROSOF-C69A97\Рабочий стол\Ещё\We Are Still Here.avi
    Format : AVI
    Format/Info : Audio Video Interleave
    File size : 737 MiB
    Duration : 1h 23mn
    Overall bit rate : 1 235 Kbps
    Writing application : VirtualDubMod (build 2540/release)
    Writing library : VirtualDubMod build 2540/release
    ID : 0
    Format : MPEG-4 Visual
    Format profile : Advanced Simple@L5
    Format settings, BVOP : 2
    Format settings, QPel : No
    Format settings, GMC : No warppoints
    Format settings, Matrix : Default (H.263)
    Muxing mode : Packed bitstream
    Codec ID : XVID
    Codec ID/Hint : XviD
    Duration : 1h 23mn
    Bit rate : 1 034 Kbps
    Width : 640 pixels
    Height : 272 pixels
    Display aspect ratio : 2.35:1
    Frame rate : 23.976 fps
    Color space : YUV
    Chroma subsampling : 4:2:0
    Bit depth : 8 bits
    Scan type : Progressive
    Compression mode : Lossy
    Bits/(Pixel*Frame) : 0.248
    Stream size : 617 MiB (84%)
    Writing library : XviD 66
    ID : 1
    Format : AC-3
    Format/Info : Audio Coding 3
    Mode extension : CM (complete main)
    Format settings, Endianness : Big
    Codec ID : 2000
    Duration : 1h 23mn
    Bit rate mode : Constant
    Bit rate : 192 Kbps
    Channel(s) : 2 channels
    Channel positions : Front: L R
    Sampling rate : 48.0 KHz
    Bit depth : 16 bits
    Compression mode : Lossy
    Stream size : 115 MiB (16%)
    Alignment : Split accross interleaves
    Interleave, duration : 42 ms (1.00 video frame)
    Interleave, preload duration : 500 ms

    Скриншот c названием фильма


    Релиз от:
    Download .torrent

    Download free and at maximum speed!

    How to Download? · What is a torrent? · Ratings and Limitations

    The site does not extend and does not store electronic(digital) versions of products, and only gives access to a reference catalogue created by users on torrent-files which contain only lists of the hash-sums, the earnest entreaty, with complaints(abuse) to access directly to the user. Files for an exchange on tracker are given by users of a site, and the administration does not bear the responsibility for their maintenance. The request to not fill in the files protected by copyrights, and also files of the illegal maintenance!

    [Profile] [PM]
    Display posts from previous:    
    Reply to topic

    The time now is: Today 12:10

    All times are GMT + 3 Hours

    You cannot post new topics in this forum
    You cannot reply to topics in this forum
    You cannot edit your posts in this forum
    You cannot delete your posts in this forum
    You cannot vote in polls in this forum
    You cannot attach files in this forum
    You cannot download files in this forum