BitTorrentTracker PerecTracker.org
BitTorrentTracker PerecTracker.org
    
Регистрация  ·  Вход
 
 · 
Забыли пароль?

  • Затмение / L'Eclisse / The Eclipse (Микеланджело Антониони / Michelangelo Antonioni) [1962, Италия, драма, DVDRip-AVC] DVO + Sub Rus + Original Ita

    Ответить на тему
     
    Автор Сообщение

    Columb

    Создавать темы 04-Июн-2013 11:37

           

    [Цитировать]

    Затмение / L'Eclisse / The Eclipse-Год выпуска: 1962
    Страна: Италия
    Жанр: драма
    Продолжительность: 02:06:00
    Перевод: Профессиональный (двухголосый, закадровый)
    Субтитры: русские
    Оригинальная аудио дорожка: итальянский
    Режиссер: Микеланджело Антониони / Michelangelo Antonioni

    В ролях: Моника Витти / Monica Vitti - Виттория
    Ален Делон / Alain Delon - Пьеро
    Франсиско Рабаль / Francisco Rabal - Риккардо
    Луи Сенье / Louis Seigner - Эрколи
    Лилла Бриньоне / Lilla Brignone - мать Виттории
    Розанна Рори / Rosanna Rory - Анита
    Мирелла Риккьярди / Mirella Ricciardi - Марта
    Описание: Фильм завершает своеобразную трилогию, начатую картинами «Приключение» и «Ночь». История любовных отношений и переживаний женщины, показанные сквозь призму режиссера
    Качество: DVDRip-AVC
    Формат: MKV
    Видео кодек: H.264
    Аудио кодек: AC3
    Видео: x264 (High@L4.1); Анаморф 720@853x464, Display aspect ratio 1.85:1, 23.976 fps, 2275 Kbps
    Аудио: Русский: AC-3; 16 bit 48 Khz; 2.0 ch 192 Kbps; CBR
    Аудио 2: Итальянский, оригинал: AC-3; 16 bit 48 Khz; 2.0 ch 192 Kbps; CBR (отдельным файлом)
    Формат субтитров: softsub (SRT) (отдельным файлом)

    MediaInfo

    General
    Unique ID : 225162673708364656324106287039883009952 (0xA964C0E9A832936AA6940A7309045FA0)
    Complete name : Затмение.1962.mkv
    Format : Matroska
    Format version : Version 2
    File size : 2.17 GiB
    Duration : 2h 6mn
    Overall bit rate : 2 469 Kbps
    Movie name : «Затмение / L'eclisse»
    Encoded date : UTC 2013-06-03 12:54:26
    Writing application : mkvmerge v5.8.0 ('No Sleep / Pillow') built on Sep 2 2012 15:37:04
    Writing library : libebml v1.2.3 + libmatroska v1.3.0
    Comment : DVDRip-AVC
    Original date released : June 3rd 2013
    Encoded by : imgeorgest®
    Video
    ID : 1
    Format : AVC
    Format/Info : Advanced Video Codec
    Format profile : High@L4.1
    Format settings, CABAC : Yes
    Format settings, ReFrames : 16 frames
    Codec ID : V_MPEG4/ISO/AVC
    Duration : 2h 6mn
    Bit rate : 2 275 Kbps
    Width : 720 pixels
    Height : 464 pixels
    Display aspect ratio : 1.85:1
    Original display aspect ratio : 1.85:1
    Frame rate mode : Constant
    Frame rate : 23.976 fps
    Color space : YUV
    Chroma subsampling : 4:2:0
    Bit depth : 8 bits
    Scan type : Progressive
    Bits/(Pixel*Frame) : 0.284
    Stream size : 1.96 GiB (90%)
    Title : Затмение / L'eclisse.1962
    Writing library : x264 core 130 r2273 b3065e6
    Encoding settings : cabac=1 / ref=16 / deblock=1:-2:-2 / analyse=0x3:0x133 / me=umh / subme=10 / psy=1 / psy_rd=1.00:0.18 / mixed_ref=1 / me_range=48 / chroma_me=1 / trellis=2 / 8x8dct=1 / cqm=0 / deadzone=21,11 / fast_pskip=0 / chroma_qp_offset=-3 / threads=12 / lookahead_threads=3 / sliced_threads=0 / nr=0 / decimate=0 / interlaced=0 / bluray_compat=0 / constrained_intra=0 / bframes=14 / b_pyramid=2 / b_adapt=2 / b_bias=0 / direct=3 / weightb=1 / open_gop=0 / weightp=2 / keyint=250 / keyint_min=23 / scenecut=40 / intra_refresh=0 / rc_lookahead=80 / rc=2pass / mbtree=1 / bitrate=2275 / ratetol=1.0 / qcomp=0.65 / qpmin=0 / qpmax=69 / qpstep=4 / cplxblur=20.0 / qblur=0.5 / vbv_maxrate=50000 / vbv_bufsize=62500 / nal_hrd=none / ip_ratio=1.40 / aq=1:1.00
    Language : Italian
    Default : Yes
    Forced : No
    Color primaries : BT.601 NTSC
    Transfer characteristics : BT.601
    Matrix coefficients : BT.601
    Audio
    ID : 2
    Format : AC-3
    Format/Info : Audio Coding 3
    Mode extension : CM (complete main)
    Format settings, Endianness : Big
    Codec ID : A_AC3
    Duration : 2h 6mn
    Bit rate mode : Constant
    Bit rate : 192 Kbps
    Channel(s) : 1 channel
    Channel positions : Front: C
    Sampling rate : 48.0 KHz
    Bit depth : 16 bits
    Compression mode : Lossy
    Stream size : 173 MiB (8%)
    Title : Русский: AC-3; 16 bit 48 Khz; 2ch 192 Kbps; CBR
    Language : Russian
    Default : Yes
    Forced : No

    x264 log

    ...last pass...
    x264.exe: --pass 2 --bitrate 2275 --level 4.1 --ref 16 --deblock -2:-2 --merange 48 --bframes 14 --direct auto --b-adapt 2 --trellis 2 --no-fast-pskip --no-dct-decimate --psy-rd 1.00:0.18 --qcomp 0.65 --vbv-maxrate 50000 --vbv-bufsize 62500 --partitions all --subme 10 --me umh --rc-lookahead 80 --colorprim smpte170m --transfer smpte170m --colormatrix smpte170m --sar 32:27 --stats "K:\Затмение.1962.log" --output "K:\Затмение.1962.mkv" "L:\Temp\2089.avs"
    avs [info]: 720x464p 32:27 @ 24000/1001 fps (cfr)
    x264 [info]: using SAR=32/27
    x264 [info]: using cpu capabilities: MMX2 SSE2Fast SSSE3 SSE4.2
    x264 [info]: profile High, level 4.1
    x264 [info]: frame I:1007 Avg QP:17.10 size: 58273
    x264 [info]: frame P:35174 Avg QP:19.99 size: 25668
    x264 [info]: frame B:145099 Avg QP:22.18 size: 8191
    x264 [info]: consecutive B-frames: 1.0% 1.9% 7.3% 16.1% 15.1% 33.8% 7.9% 5.5% 3.5% 2.1% 1.7% 2.5% 0.7% 0.4% 0.6%
    x264 [info]: mb I I16..4: 6.4% 77.7% 15.9%
    x264 [info]: mb P I16..4: 0.3% 13.5% 1.9% P16..4: 36.8% 23.9% 20.4% 1.3% 0.6% skip: 1.2%
    x264 [info]: mb B I16..4: 0.0% 1.9% 0.2% B16..8: 41.7% 15.6% 4.2% direct:10.2% skip:26.3% L0:44.4% L1:35.3% BI:20.2%
    x264 [info]: 8x8 transform intra:86.5% inter:62.1%
    x264 [info]: direct mvs spatial:98.2% temporal:1.8%
    x264 [info]: coded y,uvDC,uvAC intra: 97.4% 0.0% 0.0% inter: 42.4% 0.0% 0.0%
    x264 [info]: i16 v,h,dc,p: 45% 9% 20% 27%
    x264 [info]: i8 v,h,dc,ddl,ddr,vr,hd,vl,hu: 13% 7% 11% 10% 12% 13% 10% 13% 11%
    x264 [info]: i4 v,h,dc,ddl,ddr,vr,hd,vl,hu: 16% 6% 3% 9% 14% 17% 11% 13% 10%
    x264 [info]: i8c dc,h,v,p: 100% 0% 0% 0%
    x264 [info]: Weighted P-Frames: Y:34.1% UV:0.0%
    x264 [info]: ref P L0: 32.2% 13.3% 15.0% 7.7% 6.0% 4.7% 4.1% 2.6% 2.4% 2.1% 2.0% 1.8% 1.7% 1.6% 1.5% 1.1%
    x264 [info]: ref B L0: 60.8% 13.7% 6.1% 3.9% 2.8% 2.7% 2.1% 1.5% 1.3% 1.3% 1.1% 1.1% 0.9% 0.6% 0.2%
    x264 [info]: ref B L1: 91.2% 8.8%
    x264 [info]: kb/s:2274.90
    x264 [total]: encoded 181280 frames, 16.67 fps, 2274.90 kb/s

    Скриншоты

    Скачать .torrent

    Скачать торрент-файл бесплатно и на максимальной скорости!

    Как скачивать? · Что такое торрент? · Рейтинг и ограничения

    !ВНИМАНИЕ!
    Сайт не распространяет и не хранит электронные версии произведений, а занимается лишь лишь предоставлением доступа к создаваемому пользователями каталогу ссылок на торрент-файлы, которые содержат только списки хеш-сумм, убедительная просьба с жалобами обращаться напрямую к пользователю. Файлы для обмена на трекере предоставлены пользователями сайта, и администрация не несёт ответственности за их содержание. Просьба не заливать файлы, защищенные авторскими правами, а также файлы нелегального содержания!

    [Профиль] [ЛС]
    Показать сообщения:    
    Ответить на тему

    Текущее время: Сегодня, в 01:12

    Часовой пояс: GMT + 2



    Вы не можете начинать темы
    Вы не можете отвечать на сообщения
    Вы не можете редактировать свои сообщения
    Вы не можете удалять свои сообщения
    Вы не можете голосовать в опросах
    Вы не можете прикреплять файлы к сообщениям
    Вы не можете скачивать файлы