BitTorrentTracker PerecTracker.org
BitTorrentTracker PerecTracker.org
    
Регистрация  ·  Вход
 
 · 
Забыли пароль?

  • Анна Каренина / Anna Karenina (Кристиан Дюге / Christian Duguay) / Серии: 2 (2) [2013, Италия, Германия, Франция, Испания, драма, экранизация, HDTVRip] Sub Rus (ladySpais) + Original Ita

    Ответить на тему
     
    Автор Сообщение

    Light

    Создавать темы 23-Авг-2015 05:05

           

    [Цитировать]

    Анна Каренина / Anna Karenina
    Страна: Италия, Германия, Франция, Испания
    Жанр: драма, экранизация
    Год выпуска: 2013
    Продолжительность: 2 x 01:40:00
    Перевод: субтитры (ladySpais)
    Cубтитры: русские, неотключаемые
    Оригинальная аудиодорожка: итальянский
    Режиссер: Кристиан Дюге / Christian Duguay
    В ролях: Виттория Пуччини (Vittoria Puccini), Сантьяго Кабрера (Santiago Cabrera), Бэнджамин Сэдлер (Benjamin Sadler), Лу де Лааж (Lou de Laâge), Пьетро Сермонти (Pietro Sermonti), Макс фон Тун (Max von Thun), Карлотта Натоли (Carlotta Natoli), Сидни Ром (Sydne Rome), Анхела Молина (Angela Molina), Лея Боско (Léa Bosco), Мария Кастро (Maria Castro), Патриция Вико (Patricia Vico)
    Описание: После десятков фильмов и телевизионных адаптаций, авторы данной экранизации предлагают взглянуть на историю Анны Карениной совершенно новыми глазами. Сюжет фильма разворачивается вокруг разных пар: Стива и Долли, Кити и Левин, Анна и Вронский, Анна и Каренин. Каждая из этих пар приводит зрителя к глубоким размышлениям о концепции семьи и брака.
    Интервью актрисы Виттории Пуччини об этой экранизации
    Трейлер (на русском языке)
    Сэмпл
    Качество видео: HDTVRip
    Формат видео: AVI
    Видео: XviD, 1024x576, 25.000 fps, 1390 (1)/ 1202 (2) Kbps
    Аудио: MP3, 48 KHz, 2 ch, 256 Kbps

    MediaInfo

    Общее
    Полное имя : G:\Download\Anna Karenina\Anna Karenina E01.avi
    Формат : AVI
    Формат/Информация : Audio Video Interleave
    Размер файла : 1,09 Гбайт
    Продолжительность : 1 ч. 34 м.
    Общий поток : 1656 Кбит/сек
    Программа кодирования : VirtualDubMod 1.5.10.2 (build 2540/release)
    Библиотека кодирования : VirtualDubMod build 2540/release
    Видео
    Идентификатор : 0
    Формат : MPEG-4 Visual
    Профиль формата : Advanced Simple@L5
    Параметр BVOP формата : 1
    Параметр QPel формата : Нет
    Параметр GMC формата : Без точки перехода
    Параметр матрицы формата : Выборочная
    Идентификатор кодека : XVID
    Идентификатор кодека/Подсказка : XviD
    Продолжительность : 1 ч. 34 м.
    Битрейт : 1390 Кбит/сек
    Ширина : 1024 пикселя
    Высота : 576 пикселей
    Соотношение сторон : 16:9
    Частота кадров : 25,000 кадров/сек
    Цветовое пространство : YUV
    Субдискретизация насыщенности : 4:2:0
    Битовая глубина : 8 бит
    Тип развёртки : Прогрессивная
    Метод сжатия : С потерями
    Бит/(Пиксели*Кадры) : 0.094
    Размер потока : 938 Мбайт (84%)
    Библиотека кодирования : XviD 64
    Аудио
    Идентификатор : 1
    Формат : MPEG Audio
    Версия формата : Version 1
    Профиль формата : Layer 3
    Режим : Joint stereo
    Идентификатор кодека : 55
    Идентификатор кодека/Подсказка : MP3
    Продолжительность : 1 ч. 34 м.
    Вид битрейта : Постоянный
    Битрейт : 256 Кбит/сек
    Каналы : 2 канала
    Частота : 48,0 КГц
    Метод сжатия : С потерями
    Размер потока : 173 Мбайт (15%)
    Выравнивание : Разделение по промежуткам
    Продолжительность промежутка : 40 мс. (1,00 видеокадр)
    Время предзагрузки промежутка : 500 мс.
    Библиотека кодирования : LAME3.98.4
    Общее
    Полное имя : G:\Download\Anna Karenina\Anna Karenina E02.avi
    Формат : AVI
    Формат/Информация : Audio Video Interleave
    Размер файла : 1,02 Гбайт
    Продолжительность : 1 ч. 39 м.
    Общий поток : 1468 Кбит/сек
    Программа кодирования : VirtualDubMod 1.5.10.2 (build 2540/release)
    Библиотека кодирования : VirtualDubMod build 2540/release
    Видео
    Идентификатор : 0
    Формат : MPEG-4 Visual
    Профиль формата : Advanced Simple@L5
    Параметр BVOP формата : 1
    Параметр QPel формата : Нет
    Параметр GMC формата : Без точки перехода
    Параметр матрицы формата : Выборочная
    Идентификатор кодека : XVID
    Идентификатор кодека/Подсказка : XviD
    Продолжительность : 1 ч. 39 м.
    Битрейт : 1202 Кбит/сек
    Ширина : 1024 пикселя
    Высота : 576 пикселей
    Соотношение сторон : 16:9
    Частота кадров : 25,000 кадров/сек
    Цветовое пространство : YUV
    Субдискретизация насыщенности : 4:2:0
    Битовая глубина : 8 бит
    Тип развёртки : Прогрессивная
    Метод сжатия : С потерями
    Бит/(Пиксели*Кадры) : 0.082
    Размер потока : 858 Мбайт (82%)
    Библиотека кодирования : XviD 64
    Аудио
    Идентификатор : 1
    Формат : MPEG Audio
    Версия формата : Version 1
    Профиль формата : Layer 3
    Режим : Joint stereo
    Идентификатор кодека : 55
    Идентификатор кодека/Подсказка : MP3
    Продолжительность : 1 ч. 39 м.
    Вид битрейта : Постоянный
    Битрейт : 256 Кбит/сек
    Каналы : 2 канала
    Частота : 48,0 КГц
    Метод сжатия : С потерями
    Размер потока : 183 Мбайт (17%)
    Выравнивание : Разделение по промежуткам
    Продолжительность промежутка : 40 мс. (1,00 видеокадр)
    Время предзагрузки промежутка : 500 мс.
    Библиотека кодирования : LAME3.98.4

    Скриншот c названием фильма

    Скриншоты

    От переводчика: При переводе был использован оригинальный текст книги, в случаях расхождения сюжета фильма с сюжетом книги, подготовлен адаптированный текст. Несмотря на то, что присутствуют киноляпы, связанные с неверным представлением европейцев о России, считаю, что это одна из лучших экранизаций книги. Прошу прощения за орфографические ошибки.
    Желаю всем приятного просмотра!
    Скачать .torrent

    Скачать торрент-файл бесплатно и на максимальной скорости!

    Как скачивать? · Что такое торрент? · Рейтинг и ограничения

    !ВНИМАНИЕ!
    Сайт не распространяет и не хранит электронные версии произведений, а занимается лишь лишь предоставлением доступа к создаваемому пользователями каталогу ссылок на торрент-файлы, которые содержат только списки хеш-сумм, убедительная просьба с жалобами обращаться напрямую к пользователю. Файлы для обмена на трекере предоставлены пользователями сайта, и администрация не несёт ответственности за их содержание. Просьба не заливать файлы, защищенные авторскими правами, а также файлы нелегального содержания!


    _________________
    [Профиль] [ЛС]
    Показать сообщения:    
    Ответить на тему

    Текущее время: Сегодня, в 11:34

    Часовой пояс: GMT + 2



    Вы не можете начинать темы
    Вы не можете отвечать на сообщения
    Вы не можете редактировать свои сообщения
    Вы не можете удалять свои сообщения
    Вы не можете голосовать в опросах
    Вы не можете прикреплять файлы к сообщениям
    Вы не можете скачивать файлы