BitTorrentTracker PerecTracker.org
BitTorrentTracker PerecTracker.org
    
Регистрация  ·  Вход
 
 · 
Забыли пароль?

  • На самый юг / Plein sud / Heat of Desire (Люк Беро / Luc Béraud) [1981, Франция, Испания, Драма, DVDRip] DVO (студия "Омикрон") + Sub Rus + Original Fre

    Ответить на тему
     
    Автор Сообщение

    Columb

    Создавать темы 04-Июн-2013 11:21

           

    [Цитировать]

    На самый юг / Plein sud / Heat of Desire-Год выпуска: 1981
    Страна: Франция, Испания
    Жанр: Драма
    Продолжительность: 01:26:07
    Перевод: Профессиональный (двухголосый, закадровый)- студия "Омикрон"
    Субтитры: русские
    Оригинальная аудио дорожка: французский
    Режиссер: Люк Беро / Luc Béraud

    В ролях: Патрик Девэр, Клио Голдсмит, Жанна Моро, Ги Маршан, Пьер Дюкс, Хосе Луис Лопес Васкес, Луис Андрес, Ролан Амстюц, Беатрис Камюра, Роберт Рембо и др.
    Описание: Главной героине надоело жить с мужем. Она меняет его на первого встречного, коим оказался институтский преподаватель, он же неудачливый литератор, правда, весьма привлекательной внешности. Они бросают своих супругов и сбегают в Барселону. В центре квартиры она строит домик из стульев и простыней, где они предаются сладострастию. Вскоре они понимают, что больше мучают, чем любят друга...
    Качество: DVDRip
    Формат: AVI
    Видео кодек: XviD
    Аудио кодек: AC3
    Видео: 672x416 (1.62:1), 25 fps, XviD build 73 ~2015 kbps avg, 0.28 bit/pixel
    Аудио: 48 kHz, AC3 Dolby Digital, 2/0 (L,R) ch, ~192 kbps - русский
    Аудио 2: 48 kHz, AC3 Dolby Digital, 2/0 (L,R) ch, ~192 kbps - оригинал
    Формат субтитров: softsub (SRT)

    MediaInfo

    General
    Complete name : E:\Фильмы\Plein.sud.1981.DVDRip\Plein.sud.1981.DVDRip.avi
    Format : AVI
    Format/Info : Audio Video Interleave
    File size : 1.45 GiB
    Duration : 1h 26mn
    Overall bit rate : 2 414 Kbps
    Movie name : На самый юг / Plein sud (1981) DVDRip
    Director : Luc Beraud
    Writing application : VirtualDubModRus 1.5.10.2 (build 2542/release)
    Writing library : VirtualDubMod build 2542/release
    Copyright : Rip by Judas_X
    Video
    ID : 0
    Format : MPEG-4 Visual
    Format profile : Advanced Simple@L5
    Format settings, BVOP : 2
    Format settings, QPel : No
    Format settings, GMC : No warppoints
    Format settings, Matrix : Custom
    Codec ID : XVID
    Codec ID/Hint : XviD
    Duration : 1h 26mn
    Bit rate : 2 015 Kbps
    Width : 672 pixels
    Height : 416 pixels
    Display aspect ratio : 1.615
    Frame rate : 25.000 fps
    Color space : YUV
    Chroma subsampling : 4:2:0
    Bit depth : 8 bits
    Scan type : Progressive
    Compression mode : Lossy
    Bits/(Pixel*Frame) : 0.288
    Stream size : 1.21 GiB (83%)
    Writing library : XviD 73
    Audio #1
    ID : 1
    Format : AC-3
    Format/Info : Audio Coding 3
    Mode extension : CM (complete main)
    Format settings, Endianness : Big
    Codec ID : 2000
    Duration : 1h 26mn
    Bit rate mode : Constant
    Bit rate : 192 Kbps
    Channel(s) : 2 channels
    Channel positions : Front: L R
    Sampling rate : 48.0 KHz
    Bit depth : 16 bits
    Compression mode : Lossy
    Stream size : 118 MiB (8%)
    Alignment : Split accross interleaves
    Interleave, duration : 40 ms (1.00 video frame)
    Interleave, preload duration : 500 ms
    Audio #2
    ID : 2
    Format : AC-3
    Format/Info : Audio Coding 3
    Mode extension : CM (complete main)
    Format settings, Endianness : Big
    Codec ID : 2000
    Duration : 1h 26mn
    Bit rate mode : Constant
    Bit rate : 192 Kbps
    Channel(s) : 2 channels
    Channel positions : Front: L R
    Sampling rate : 48.0 KHz
    Bit depth : 16 bits
    Compression mode : Lossy
    Stream size : 118 MiB (8%)
    Alignment : Split accross interleaves
    Interleave, duration : 40 ms (1.00 video frame)
    Interleave, preload duration : 500 ms

    Скриншоты

    Скачать .torrent

    Скачать торрент-файл бесплатно и на максимальной скорости!

    Как скачивать? · Что такое торрент? · Рейтинг и ограничения

    !ВНИМАНИЕ!
    Сайт не распространяет и не хранит электронные версии произведений, а занимается лишь лишь предоставлением доступа к создаваемому пользователями каталогу ссылок на торрент-файлы, которые содержат только списки хеш-сумм, убедительная просьба с жалобами обращаться напрямую к пользователю. Файлы для обмена на трекере предоставлены пользователями сайта, и администрация не несёт ответственности за их содержание. Просьба не заливать файлы, защищенные авторскими правами, а также файлы нелегального содержания!

    [Профиль] [ЛС]
    Показать сообщения:    
    Ответить на тему

    Текущее время: Сегодня, в 04:20

    Часовой пояс: GMT + 2



    Вы не можете начинать темы
    Вы не можете отвечать на сообщения
    Вы не можете редактировать свои сообщения
    Вы не можете удалять свои сообщения
    Вы не можете голосовать в опросах
    Вы не можете прикреплять файлы к сообщениям
    Вы не можете скачивать файлы