BitTorrentTracker PerecTracker.org
BitTorrentTracker PerecTracker.org
    
Регистрация  ·  Вход
 
 · 
Забыли пароль?

  • Батька (Борис Степанов) [1971, драма, DVB]

    Ответить на тему
     
    Автор Сообщение

    Columb

    Создавать темы 04-Июн-2013 11:13

           

    [Цитировать]

    Батька-Год выпуска: 1971
    Страна: СССР
    Жанр: драма
    Продолжительность: 01:28:54
    Перевод: Не требуется
    Субтитры: нет
    Режиссер: Борис Степанов
    В ролях: Юрий Горобец, Борис Владомирский, Виктор Тарасов, Любовь Румянцева, Александр Леньков, Лери Гаприндашвили, Геннадий Николаев, Геннадий Овсянников, Аркадий Трусов, Людмила Черепанова, Николай Прокопович, Егор Николаев, Лена Ольшевская, Витя Добыш, Ира Байковская, Лудвигс Барс, Херберт (Герберт) Зоммер, Юрис Каминскис
    Описание: Партизанский отряд батьки Миная давно наводил страх на фашистов, назначивших за его голову 10 000 рейхсмарок. Гитлеровцам удалось схватить четверых его детей, которых он не смог эвакуировать. В обмен на их жизни от Миная Шмырева немцы потребовали сложить оружие...
    Доп. информация: Запись потока *.ts со спутника EUTELSAT, ремукс в *.mpg программой VideoReDo.
    Качество:DVB
    Формат: MPEG-PS
    Видео кодек: MPEG Video
    Аудио кодек: MPEG Audio
    Видео: MPEG Video, 704x576 (4 : 3), 25,000 кадров/сек, 2638 Кбит/сек
    Аудио: MPEG Audio, 48,0 КГц, 192 Кбит/сек, 2 канала

    MediaInfo

    Общее
    Полное имя : D:\Torrent\Батька\Батька (ZVEZDA).mpg
    Формат : MPEG-PS
    Размер файла : 1,79 Гбайт
    Продолжительность : 1 ч. 28 м.
    Режим общего битрейта : Переменный
    Общий поток : 2888 Кбит/сек
    Видео
    Идентификатор : 224 (0xE0)
    Формат : MPEG Video
    Версия формата : Version 2
    Профиль формата : Main@Main
    Параметр BVOP формата : Нет
    Параметр матрицы формата : Выборочная
    Параметр GOP формата : Variable
    Продолжительность : 1 ч. 28 м.
    Вид битрейта : Переменный
    Битрейт : 2638 Кбит/сек
    Максимальный битрейт : 15,0 Мбит/сек
    Ширина : 704 пикселя
    Высота : 576 пикселей
    Соотношение сторон : 4:3
    Частота кадров : 25,000 кадров/сек
    Стандарт вещания : PAL
    Цветовое пространство : YUV
    Субдискретизация насыщенности : 4:2:0
    Битовая глубина : 8 бит
    Тип развёртки : Чересстрочная
    Порядок развёртки : Верхнее поле первое
    Метод сжатия : С потерями
    Бит/(Пиксели*Кадры) : 0.260
    TimeCode_FirstFrame : 00:00:00:00
    TimeCode_Source : Group of pictures header
    Размер потока : 1,64 Гбайт (91%)
    Аудио
    Идентификатор : 192 (0xC0)
    Формат : MPEG Audio
    Версия формата : Version 1
    Профиль формата : Layer 2
    Продолжительность : 1 ч. 28 м.
    Вид битрейта : Постоянный
    Битрейт : 192 Кбит/сек
    Каналы : 2 канала
    Частота : 48,0 КГц
    Метод сжатия : С потерями
    Размер потока : 122 Мбайт (7%)

    Скриншоты

    Скачать .torrent

    Скачать торрент-файл бесплатно и на максимальной скорости!

    Как скачивать? · Что такое торрент? · Рейтинг и ограничения

    !ВНИМАНИЕ!
    Сайт не распространяет и не хранит электронные версии произведений, а занимается лишь лишь предоставлением доступа к создаваемому пользователями каталогу ссылок на торрент-файлы, которые содержат только списки хеш-сумм, убедительная просьба с жалобами обращаться напрямую к пользователю. Файлы для обмена на трекере предоставлены пользователями сайта, и администрация не несёт ответственности за их содержание. Просьба не заливать файлы, защищенные авторскими правами, а также файлы нелегального содержания!

    [Профиль] [ЛС]
    Показать сообщения:    
    Ответить на тему

    Текущее время: Сегодня, в 10:41

    Часовой пояс: GMT + 2



    Вы не можете начинать темы
    Вы не можете отвечать на сообщения
    Вы не можете редактировать свои сообщения
    Вы не можете удалять свои сообщения
    Вы не можете голосовать в опросах
    Вы не можете прикреплять файлы к сообщениям
    Вы не можете скачивать файлы