BitTorrentTracker PerecTracker.org
BitTorrentTracker PerecTracker.org
    
Регистрация  ·  Вход
 
 · 
Забыли пароль?

  • Псы 2: Последняя кровь / Psy 2: Ostatnia Krew (Владислав Пасиковски / Wladyslaw Pasikowski) [1994, Польша, боевик, криминал, HDTVRip 720p] DVO + Original Pol + Sub Rus

    Ответить на тему
     
    Автор Сообщение

    Flirldrerve

    Создавать темы 22-Авг-2015 20:41

           

    [Цитировать]

    Псы 2: Последняя кровь / Psy 2: Ostatnia Krew-Страна: Польша
    Жанр: боевик, криминал
    Год выпуска: 1994
    Продолжительность: 01:38:59-Перевод: Профессиональный (двухголосый закадровый)
    Cубтитры: русские (на не русскую речь), польский хардсаб (на не польскую речь)
    Оригинальная аудиодорожка: польский / русский / сербохорватский-Режиссер: Владислав Пасиковски / Wladyslaw Pasikowski
    В ролях: Богуслав Линда, Цезарь Пазура, Артур Жмиевски, Магдалена Дандурян, Валерий Приемыхов, Сергей Шакуров, Петр Зайченко, Александр Беднаж, Эдвард Линде-Любашенко, Ян Махульский...- | Релиз: -Описание: По всей планете гибнут люди в межнациональных конфликтах и гражданских войнах. Ни для кого не секрет, что некоторые прилично наживаются на них. Из этого мощного, страшного, реалистичного фильма вы узнаете кто и как снабжает такие конфликты оружием. На этот раз оно поставляется в бывшую Югославию. При этом обогащаются и гибнут, убивая друг друга, поляки, русские, украинцы. В центре сюжета три друга - один только что вышел из тюрьмы, а другого, простого уличного регулировщика, он подбил съездить в Тирасполь, чтобы привезти 21 млн. долларов на покупку оружия для Сараево. Третий - просто пес войны, любитель острых ощущений и стрельбы. Он хороший товарищ и лихо пьет водку. Заправляет всем бывший советский полковник Савчук. Предательство, невозможность дружбы, смерть, кровь и обреченность на гибель тех, в ком осталась хоть капля совести, тех, кто не хочет участвовать в братоубийственных войнах. Сделана эта жуткая драма в жанре динамичного и драматичного боевика. Крови, как у Тарантино, не меньше. Польский кинематограф всегда был сильным, подтверждением является этот далекий от заурядности фильм.-Доп. информация:
    - За исходную русскую дорожку спасибо Шерсть.
    - За исходную польскую 5.1 дорожку и русские субтитры спасибо MMManja.
    - Захват спутниковой трансляции, работа со звуком и видео - xfiles.-Семпл: http://sendfile.su/1147601-Тип релиза: HDTVRip 720p
    Контейнер: MKV
    Видео: 1280x532 (2.40:1), 25.000 fps, AVC, ~3056 Kbps, 0.180 bits/pixel
    Аудио 1: Russian, 48.0 KHz, AC3, 1 ch, 128 Kbps
    Аудио 2: Polish, Russian, Serbo-Croatian, 48.0 KHz, AC3, 6 ch, 448 Kbps - 5.1 | DVD
    Аудио 3: Polish, Russian, Serbo-Croatian, 48.0 KHz, AC3, 2 ch, 192 Kbps - 2.0 | Broadcast
    MediaInfo

    x264 log

    x264 [info]: frame I:703 Avg QP:15.17 size: 65581
    x264 [info]: frame P:27479 Avg QP:16.84 size: 27247
    x264 [info]: frame B:86394 Avg QP:19.24 size: 11651
    x264 [info]: consecutive B-frames: 2.0% 4.4% 5.0% 47.9% 13.8% 13.9% 4.1% 7.8% 0.6% 0.4% 0.1%
    GeneralUnique ID : 205613061065494081481749510700601890323 (0x9AAFA297A3627ABFA3D820C2A23ED613)Complete name : E:\HD\Psy.2.Ostatnia.krew.HDTVRip.720p-rutracker.xfiles.mkvFormat : MatroskaFormat version : Version 4 / Version 2File size : 2.70 GiBDuration : 1h 38mnOverall bit rate : 3 902 KbpsMovie name : Psy.2.Ostatnia.krew.HDTVRip.720p-rutracker.xfilesEncoded date : UTC 2015-08-20 19:38:44Writing application : mkvmerge v8.3.0 ('Over the Horizon') 64bitWriting library : libebml v1.3.1 + libmatroska v1.4.2
    VideoID : 1Format : AVCFormat/Info : Advanced Video CodecFormat profile : High@L4.1Format settings, CABAC : YesFormat settings, ReFrames : 10 framesCodec ID : V_MPEG4/ISO/AVCDuration : 1h 38mnBit rate : 3 056 KbpsWidth : 1 280 pixelsHeight : 532 pixelsDisplay aspect ratio : 2.40:1Frame rate mode : ConstantFrame rate : 25.000 fpsColor space : YUVChroma subsampling : 4:2:0Bit depth : 8 bitsScan type : ProgressiveBits/(Pixel*Frame) : 0.180Stream size : 2.11 GiB (78%)Title : Psy.2.Ostatnia.krew.HDTVRip.720p-rutracker.xfilesWriting library : x264 core 148 r2579kMod 73ae2d1Encoding settings : cabac=1 / ref=10 / deblock=1:-3:-3 / analyse=0x3:0x133 / me=umh / subme=11 / psy=1 / fade_compensate=0.00 / psy_rd=1.00:0.10 /mixed_ref=1 / me_range=36 / chroma_me=1 / trellis=2 / 8x8dct=1 / cqm=0 / deadzone=21,11 / fast_pskip=0 / chroma_qp_offset=-3 / threads=12 / lookahead_threads=3 /sliced_threads=0 / nr=0 / decimate=1 / interlaced=0 / bluray_compat=0 / constrained_intra=0 / fgo=0 / bframes=10 / b_pyramid=2 / b_adapt=2 / b_bias=0 / direct=3 /weightb=1 / open_gop=0 / weightp=2 / keyint=250 / keyint_min=25 / scenecut=40 / intra_refresh=0 / rc_lookahead=70 / rc=crf / mbtree=0 / crf=18.0000 / qcomp=0.60 /qpmin=0 / qpmax=69 / qpstep=4 / vbv_maxrate=50000 / vbv_bufsize=62500 / crf_max=0.0 / nal_hrd=none / filler=0 / ip_ratio=1.40 / pb_ratio=1.30 / aq=1:0.80Language : PolishDefault : YesForced : NoColor range : LimitedColor primaries : BT.709Transfer characteristics : BT.709Matrix coefficients : BT.709
    Audio #1ID : 2Format : AC-3Format/Info : Audio Coding 3Mode extension : CM (complete main)Format settings, Endianness : BigCodec ID : A_AC3Duration : 1h 38mnBit rate mode : ConstantBit rate : 128 KbpsChannel(s) : 1 channelChannel positions : Front: CSampling rate : 48.0 KHzCompression mode : LossyStream size : 90.6 MiB (3%)Language : RussianDefault : YesForced : No
    Audio #2ID : 3Format : AC-3Format/Info : Audio Coding 3Mode extension : CM (complete main)Format settings, Endianness : BigCodec ID : A_AC3Duration : 1h 38mnBit rate mode : ConstantBit rate : 448 KbpsChannel(s) : 6 channelsChannel positions : Front: L C R, Side: L R, LFESampling rate : 48.0 KHzCompression mode : LossyStream size : 317 MiB (11%)Title : 5.1 | DVDLanguage : PolishDefault : NoForced : No
    Audio #3ID : 4Format : AC-3Format/Info : Audio Coding 3Mode extension : CM (complete main)Format settings, Endianness : BigCodec ID : A_AC3Duration : 1h 38mnBit rate mode : ConstantBit rate : 192 KbpsChannel(s) : 2 channelsChannel positions : Front: L RSampling rate : 48.0 KHzCompression mode : LossyStream size : 136 MiB (5%)Title : 2.0 | BroadcastLanguage : PolishDefault : NoForced : No
    TextID : 5Format : UTF-8Codec ID : S_TEXT/UTF8Codec ID/Info : UTF-8 Plain TextLanguage : RussianDefault : NoForced : No

    Скриншоты

    Скачать .torrent

    Скачать торрент-файл бесплатно и на максимальной скорости!

    Как скачивать? · Что такое торрент? · Рейтинг и ограничения

    !ВНИМАНИЕ!
    Сайт не распространяет и не хранит электронные версии произведений, а занимается лишь лишь предоставлением доступа к создаваемому пользователями каталогу ссылок на торрент-файлы, которые содержат только списки хеш-сумм, убедительная просьба с жалобами обращаться напрямую к пользователю. Файлы для обмена на трекере предоставлены пользователями сайта, и администрация не несёт ответственности за их содержание. Просьба не заливать файлы, защищенные авторскими правами, а также файлы нелегального содержания!


    _________________
    [Профиль] [ЛС]
    Показать сообщения:    
    Ответить на тему

    Текущее время: Сегодня, в 14:28

    Часовой пояс: GMT + 2



    Вы не можете начинать темы
    Вы не можете отвечать на сообщения
    Вы не можете редактировать свои сообщения
    Вы не можете удалять свои сообщения
    Вы не можете голосовать в опросах
    Вы не можете прикреплять файлы к сообщениям
    Вы не можете скачивать файлы