BitTorrentTracker PerecTracker.org
BitTorrentTracker PerecTracker.org
    
Регистрация  ·  Вход
 
 · 
Забыли пароль?

  • Странные взрослые (Аян Шахмалиева) [1974, драма, HDTVRip-AVC]

    Ответить на тему
     
    Автор Сообщение

    Light

    Создавать темы 22-Авг-2015 20:41

           

    [Цитировать]

    Странные взрослые-Жанр: драма
    Год выпуска: 1974
    Продолжительность: 01:15:53-Режиссёр: Аян Шахмалиева-В ролях:
    Маргарита Сергеечева, Лев Дуров, Ирина Кириченко, Зиновий Гердт, Евгения Ханаева, Александр Демьяненко, Алла Мещерякова, Наталья Мартинсон, Юрий Каморный, Владимир Романовский, Тамара Колесникова, Ольга Казакова, Вера Липсток, Любовь Тищенко, Антонина Шуранова
    Описание:
    По мотивам одноименной повести Аркадия Минчковского.
    Немолодые бездетные супруги взяли из детского дома девочку Тоню. В большой коммунальной квартире старого ленинградского дома отношения ребёнка с жильцами складываются непросто...-Сэмпл | -Качество видео: HDTVRip-AVC / Strannye.vzroslye.1974.HDTV.1080i.ts | kinozal.tv, спасибо daboen
    Формат видео: MKV
    Видео: x264 (High@L4.1); 768x576, Display aspect ratio 4:3, 25.000 fps, 2548 Kbps
    Аудио: AC-3; 16 bits 48 Khz; 2.0ch 192 Kbps; CBR
    ="MediaInfo"
    -

    x264 log

    avs [info]: 768x576p 1:1 @ 25/1 fps (cfr)
    x264 [info]: using SAR=1/1
    x264 [info]: using cpu capabilities: MMX2 SSE2Fast SSSE3 SSE4.2
    x264 [info]: profile High, level 4.1
    x264 [info]: frame I:569 Avg QP:18.39 size: 51306
    x264 [info]: frame P:24774 Avg QP:20.60 size: 22607
    x264 [info]: frame B:88499 Avg QP:22.69 size: 9731
    x264 [info]: consecutive B-frames: 1.0% 2.6% 6.2% 29.2% 25.1% 22.0% 9.4% 3.0% 0.8% 0.8%
    x264 [info]: mb I I16..4: 2.3% 85.7% 12.0%
    x264 [info]: mb P I16..4: 0.3% 13.7% 1.1% P16..4: 36.1% 37.9% 10.6% 0.0% 0.0% skip: 0.2%
    x264 [info]: mb B I16..4: 0.0% 1.4% 0.1% B16..8: 41.0% 20.6% 2.6% direct:12.2% skip:22.0% L0:40.3% L1:46.0% BI:13.7%
    x264 [info]: 8x8 transform intra:90.6% inter:67.6%
    x264 [info]: direct mvs spatial:99.7% temporal:0.3%
    x264 [info]: coded y,uvDC,uvAC intra: 97.1% 87.7% 52.7% inter: 47.3% 39.4% 7.9%
    x264 [info]: i16 v,h,dc,p: 25% 17% 4% 55%
    x264 [info]: i8 v,h,dc,ddl,ddr,vr,hd,vl,hu: 13% 8% 4% 9% 13% 14% 13% 13% 13%
    x264 [info]: i4 v,h,dc,ddl,ddr,vr,hd,vl,hu: 14% 9% 2% 7% 15% 16% 14% 11% 12%
    x264 [info]: i8c dc,h,v,p: 37% 21% 23% 18%
    x264 [info]: Weighted P-Frames: Y:27.5% UV:8.7%
    x264 [info]: ref P L0: 40.7% 12.5% 15.0% 7.0% 5.6% 4.4% 3.6% 2.0% 1.8% 1.6% 1.5% 1.3% 1.3% 1.2% 0.5% 0.0%
    x264 [info]: ref B L0: 82.5% 7.9% 2.9% 1.7% 1.2% 1.0% 0.8% 0.5% 0.4% 0.4% 0.3% 0.2% 0.1%
    x264 [info]: ref B L1: 95.7% 4.3%
    x264 [info]: kb/s:2548.16
    x264 [total]: encoded 113842 frames, 12.45 fps, 2548.17 kb/s
    -General
    Unique ID : 226326132201428511521647709505883452702 (0xAA44D3D8609F2878809D26B487B7B51E)
    Complete name : Странные взрослые.1974.mkv
    Format : Matroska
    Format version : Version 2
    File size : 1.45 GiB
    Duration : 1h 15mn
    Overall bit rate : 2 742 Kbps
    Movie name : «Странные взрослые»
    Encoded date : UTC 2015-08-22 09:36:23
    Writing application : mkvmerge v5.8.0 ('No Sleep / Pillow') built on Sep 2 2012 15:37:04
    Writing library : libebml v1.2.3 + libmatroska v1.3.0
    Comment : HDTVRip-AVC
    Originally released : August 20th 2015
    Encoded by : george$t®
    Video
    ID : 1
    Format : AVC
    Format/Info : Advanced Video Codec
    Format profile : High@L4.1
    Format settings, CABAC : Yes
    Format settings, ReFrames : 14 frames
    Codec ID : V_MPEG4/ISO/AVC
    Duration : 1h 15mn
    Bit rate : 2 548 Kbps
    Width : 768 pixels
    Height : 576 pixels
    Display aspect ratio : 4:3
    Frame rate mode : Constant
    Frame rate : 25.000 fps
    Color space : YUV
    Chroma subsampling : 4:2:0
    Bit depth : 8 bits
    Scan type : Progressive
    Bits/(Pixel*Frame) : 0.230
    Stream size : 1.32 GiB (91%)
    Title : Странные взрослые.1974
    Writing library : x264 core 148 r2579kMod 73ae2d1
    Encoding settings : cabac=1 / ref=14 / deblock=1:-1:0 / analyse=0x3:0x113 / me=umh / subme=11 / psy=1 / fade_compensate=0.00 / psy_rd=1.00:0.20 / mixed_ref=1 / me_range=32 / chroma_me=1 / trellis=2 / 8x8dct=1 / cqm=0 / deadzone=21,11 / fast_pskip=0 / chroma_qp_offset=-3 / threads=12 / lookahead_threads=2 / sliced_threads=0 / nr=0 / decimate=0 / interlaced=0 / bluray_compat=0 / constrained_intra=0 / fgo=0 / bframes=9 / b_pyramid=2 / b_adapt=2 / b_bias=0 / direct=3 / weightb=1 / open_gop=0 / weightp=2 / keyint=250 / keyint_min=25 / scenecut=40 / intra_refresh=0 / rc_lookahead=40 / rc=2pass / mbtree=0 / bitrate=2548 / ratetol=1.0 / qcomp=0.60 / qpmin=0 / qpmax=69 / qpstep=4 / cplxblur=20.0 / qblur=0.5 / vbv_maxrate=50000 / vbv_bufsize=62500 / nal_hrd=none / filler=0 / ip_ratio=1.30 / pb_ratio=1.30 / aq=2:0.40
    Language : Russian
    Default : Yes
    Forced : No
    Color primaries : BT.709
    Transfer characteristics : BT.709
    Matrix coefficients : BT.709
    Color range : Limited
    Audio
    ID : 2
    Format : AC-3
    Format/Info : Audio Coding 3
    Mode extension : CM (complete main)
    Format settings, Endianness : Big
    Codec ID : A_AC3
    Duration : 1h 15mn
    Bit rate mode : Constant
    Bit rate : 192 Kbps
    Channel(s) : 2 channels
    Channel positions : Front: L R
    Sampling rate : 48.0 KHz
    Bit depth : 16 bits
    Compression mode : Lossy
    Stream size : 104 MiB (7%)
    Title : AC-3; 16 bits 48 Khz; 2.0ch 192 Kbps; CBR
    Language : Russian
    Default : Yes
    Forced : No
    Скачать .torrent

    Скачать торрент-файл бесплатно и на максимальной скорости!

    Как скачивать? · Что такое торрент? · Рейтинг и ограничения

    !ВНИМАНИЕ!
    Сайт не распространяет и не хранит электронные версии произведений, а занимается лишь лишь предоставлением доступа к создаваемому пользователями каталогу ссылок на торрент-файлы, которые содержат только списки хеш-сумм, убедительная просьба с жалобами обращаться напрямую к пользователю. Файлы для обмена на трекере предоставлены пользователями сайта, и администрация не несёт ответственности за их содержание. Просьба не заливать файлы, защищенные авторскими правами, а также файлы нелегального содержания!


    _________________
    [Профиль] [ЛС]
    Показать сообщения:    
    Ответить на тему

    Текущее время: Сегодня, в 22:32

    Часовой пояс: GMT + 2



    Вы не можете начинать темы
    Вы не можете отвечать на сообщения
    Вы не можете редактировать свои сообщения
    Вы не можете удалять свои сообщения
    Вы не можете голосовать в опросах
    Вы не можете прикреплять файлы к сообщениям
    Вы не можете скачивать файлы