BitTorrentTracker PerecTracker.org
BitTorrentTracker PerecTracker.org
    
Регистрация  ·  Вход
 
 · 
Забыли пароль?

  • Квартира 4Е / Apartment 4E (Рассел Ли Шерман / Russell Leigh Sharman) [2012, США, Драма, детектив, HDRip] VO (lord666)

    Ответить на тему
     
    Автор Сообщение

    Columb

    Создавать темы 03-Июн-2013 12:35

           

    [Цитировать]

    Квартира 4Е / Apartment 4E-Год выпуска: 2012
    Страна: США
    Жанр: Драма, детектив
    Продолжительность: 01:27:25
    Перевод: Одноголосый закадровый lord666
    Субтитры: нет
    Режиссер: Рассел Ли Шерман / Russell Leigh Sharman

    В ролях: Николь Бихери, Кристофер Домиг, Энтони Спалдо, Эллен Лэнез
    Описание: Три месяца назад Пайпер и Молли познакомились в Интернете. И Молли изменила все. Сейчас в дверь стучит Джон Шарп, брат Молли. Его послали отговорить Пайпер делать то, что она грозит сделать, но вдруг он не тот, за кого себя выдает.
    Доп. информация: Внимание! Ненормативная лексика!
    Качество: HDRip
    Формат: AVI
    Видео кодек: XviD
    Аудио кодек: MP3
    Видео: XVID, 640x272, 2,35:1, 23,976 кадра/сек, 982 Кбит/сек
    Аудио: MP3, 48,0 КГц, 128 Кбит/сек, 2 канала

    Скриншоты

    MediaInfo

    Общее
    Полное имя : D:\фильмы.avi\uploaded\apartment4e\Apartment4e.2012.HDRip.XviD.VO.lord666.avi
    Формат : AVI
    Формат/Информация : Audio Video Interleave
    Размер файла : 700 Мбайт
    Продолжительность : 1 ч. 27 м.
    Общий поток : 1119 Кбит/сек
    Программа кодирования : VirtualDubMod 1.5.10.2 (build 2540/release)
    Библиотека кодирования : VirtualDubMod build 2540/release
    Видео
    Идентификатор : 0
    Формат : MPEG-4 Visual
    Профиль формата : Advanced Simple@L5
    Параметр BVOP формата : 2
    Параметр QPel формата : Нет
    Параметр GMC формата : Без точки перехода
    Параметр матрицы формата : Default (H.263)
    Режим смешивания : Сжатый битовый поток
    Идентификатор кодека : XVID
    Идентификатор кодека/Подсказка : XviD
    Продолжительность : 1 ч. 27 м.
    Битрейт : 982 Кбит/сек
    Ширина : 640 пикселей
    Высота : 272 пикселя
    Соотношение сторон : 2,35:1
    Частота кадров : 23,976 кадра/сек
    Цветовое пространство : YUV
    Субдискретизация насыщенности : 4:2:0
    Битовая глубина : 8 бит
    Тип развёртки : Прогрессивная
    Метод сжатия : С потерями
    Бит/(Пиксели*Кадры) : 0.235
    Размер потока : 614 Мбайт (88%)
    Библиотека кодирования : XviD 64
    Аудио
    Идентификатор : 1
    Формат : MPEG Audio
    Версия формата : Version 1
    Профиль формата : Layer 3
    Режим : Joint stereo
    Расширение режима : MS Stereo
    Идентификатор кодека : 55
    Идентификатор кодека/Подсказка : MP3
    Продолжительность : 1 ч. 27 м.
    Вид битрейта : Постоянный
    Битрейт : 128 Кбит/сек
    Каналы : 2 канала
    Частота : 48,0 КГц
    Метод сжатия : С потерями
    Размер потока : 80,0 Мбайт (11%)
    Выравнивание : Соединение по промежуткам
    Продолжительность промежутка : 42 мс. (1,00 видеокадр)
    Время предзагрузки промежутка : 504 мс.
    Скачать .torrent

    Скачать торрент-файл бесплатно и на максимальной скорости!

    Как скачивать? · Что такое торрент? · Рейтинг и ограничения

    !ВНИМАНИЕ!
    Сайт не распространяет и не хранит электронные версии произведений, а занимается лишь лишь предоставлением доступа к создаваемому пользователями каталогу ссылок на торрент-файлы, которые содержат только списки хеш-сумм, убедительная просьба с жалобами обращаться напрямую к пользователю. Файлы для обмена на трекере предоставлены пользователями сайта, и администрация не несёт ответственности за их содержание. Просьба не заливать файлы, защищенные авторскими правами, а также файлы нелегального содержания!

    [Профиль] [ЛС]
    Показать сообщения:    
    Ответить на тему

    Текущее время: Сегодня, в 08:53

    Часовой пояс: GMT + 2



    Вы не можете начинать темы
    Вы не можете отвечать на сообщения
    Вы не можете редактировать свои сообщения
    Вы не можете удалять свои сообщения
    Вы не можете голосовать в опросах
    Вы не можете прикреплять файлы к сообщениям
    Вы не можете скачивать файлы